<?xml version="1.0" standalone="no"?>
<!DOCTYPE svg PUBLIC "-//W3C//DTD SVG 1.1//EN" "http://www.w3.org/Graphics/SVG/1.1/DTD/svg11.dtd" >
<svg xmlns="http://www.w3.org/2000/svg" xmlns:xlink="http://www.w3.org/1999/xlink" version="1.1">
<metadata>
Created by FontForge 20190801 at Fri Jun 21 10:15:31 2019
 By www-data
Copyright (c)2016, Arco Perpetuo Pro designed by Alfredo Marco Pradil (ammpradil@gmail.com). Arco Perpetuo Pro is a trademark of Alfredo Marco Pradil.
</metadata>
<defs>
<font id="ArcoPerpetuoProRegular" horiz-adv-x="0" >
  <font-face 
    font-family="ArcoPerpetuoProRegular"
    font-weight="400"
    font-stretch="normal"
    units-per-em="1000"
    panose-1="0 0 5 0 0 0 0 0 0 0"
    ascent="800"
    descent="-200"
    x-height="512"
    cap-height="690"
    bbox="-699 -244 1044 868"
    underline-thickness="40"
    underline-position="-100"
    unicode-range="U+0020-FB02"
  />
<missing-glyph horiz-adv-x="436" 
d="M27 0q-9 0 -9 9v470q0 9 9 9h382q9 0 9 -9v-470q0 -9 -9 -9h-382zM68 50h300v388h-300v-388z" />
    <glyph glyph-name="arrowleft" unicode="&#x3c;&#x2d;" horiz-adv-x="1097" 
d="M1036 348q8 0 8 -9v-58q0 -9 -8 -9h-776l252 -134q6 -3 6 -10v-61q0 -13 -10 -6l-438 245q-4 2 -4 6t4 6l438 242q10 5 10 -7v-60q0 -8 -6 -11l-252 -134h776z" />
    <glyph glyph-name="arrowright" unicode="&#x2d;&#x3e;" horiz-adv-x="1097" 
d="M1026 318q4 -2 4 -6t-4 -6l-437 -245q-10 -7 -10 6v61q0 8 6 10l252 134h-776q-9 0 -9 9v58q0 9 9 9h776l-252 134q-6 3 -6 11v60q0 12 10 7z" />
    <glyph glyph-name="fi" unicode="fi" horiz-adv-x="544" 
d="M462 512q9 0 9 -9v-494q0 -9 -9 -9h-73q-9 0 -9 9v433h-183v-433q0 -9 -8 -9h-75q-9 0 -9 9v433h-81q-9 0 -9 9v52q0 9 9 9h82v53q0 57 39.5 91t97.5 34h54q9 0 9 -9v-53q0 -9 -9 -9h-42q-58 0 -58 -53v-54h265zM467 690q9 0 9 -9v-82q0 -9 -9 -9h-83q-9 0 -9 9v82
q0 9 9 9h83z" />
    <glyph glyph-name="fl" unicode="fl" horiz-adv-x="569" 
d="M114 0q-9 0 -9 9v433h-81q-9 0 -9 9v52q0 9 9 9h81v33q0 66 40.5 105.5t110.5 39.5h59q9 0 9 -9v-53q0 -9 -9 -9h-48q-33 0 -52 -20t-19 -53v-34h119q9 0 9 -9v-52q0 -9 -9 -9h-119v-433q0 -9 -9 -9h-73zM407 0q-9 0 -9 9v672q0 9 9 9h74q8 0 8 -9v-672q0 -9 -8 -9h-74z
" />
    <glyph glyph-name="f_f" unicode="ff" horiz-adv-x="616" 
d="M546 619q-33 0 -52 -20t-19 -53v-34h119q9 0 9 -9v-52q0 -9 -9 -9h-119v-433q0 -9 -9 -9h-74q-8 0 -8 9v433h-188v-433q0 -9 -9 -9h-73q-9 0 -9 9v433h-81q-9 0 -9 9v52q0 9 9 9h81v33q0 66 40.5 105.5t110.5 39.5h59q9 0 9 -9v-53q0 -9 -9 -9h-48q-33 0 -52 -20t-19 -53
v-34h188v33q0 66 40 105.5t110 39.5h60q9 0 9 -9v-53q0 -9 -9 -9h-48z" />
    <glyph glyph-name="f_f_i" unicode="ffi" horiz-adv-x="852" 
d="M594 690q9 0 9 -9v-53q0 -9 -9 -9h-48q-33 0 -52 -20t-19 -53v-34h119q9 0 9 -9v-52q0 -9 -9 -9h-119v-433q0 -9 -9 -9h-74q-8 0 -8 9v433h-188v-433q0 -9 -9 -9h-73q-9 0 -9 9v433h-81q-9 0 -9 9v52q0 9 9 9h81v33q0 66 40.5 105.5t110.5 39.5h59q9 0 9 -9v-53
q0 -9 -9 -9h-48q-33 0 -52 -20t-19 -53v-34h188v33q0 66 40 105.5t110 39.5h60zM776 690q8 0 8 -9v-82q0 -9 -8 -9h-83q-9 0 -9 9v82q0 9 9 9h83zM771 512q9 0 9 -9v-494q0 -9 -9 -9h-74q-9 0 -9 9v494q0 9 9 9h74z" />
    <glyph glyph-name="f_f_l" unicode="ffl" horiz-adv-x="866" 
d="M594 690q9 0 9 -9v-53q0 -9 -9 -9h-48q-33 0 -52 -20t-19 -53v-34h119q9 0 9 -9v-52q0 -9 -9 -9h-119v-433q0 -9 -9 -9h-74q-8 0 -8 9v433h-188v-433q0 -9 -9 -9h-73q-9 0 -9 9v433h-81q-9 0 -9 9v52q0 9 9 9h81v33q0 66 40.5 105.5t110.5 39.5h59q9 0 9 -9v-53
q0 -9 -9 -9h-48q-33 0 -52 -20t-19 -53v-34h188v33q0 66 40 105.5t110 39.5h60zM778 690q9 0 9 -9v-672q0 -9 -9 -9h-74q-8 0 -8 9v672q0 9 8 9h74z" />
    <glyph glyph-name=".notdef" horiz-adv-x="436" 
d="M27 0q-9 0 -9 9v470q0 9 9 9h382q9 0 9 -9v-470q0 -9 -9 -9h-382zM68 50h300v388h-300v-388z" />
    <glyph glyph-name=".null" 
 />
    <glyph glyph-name="nonmarkingreturn" horiz-adv-x="333" 
 />
    <glyph glyph-name="space" unicode=" " horiz-adv-x="229" 
 />
    <glyph glyph-name="exclam" unicode="!" horiz-adv-x="267" 
d="M108 195q-9 0 -9 9l-14 477q0 9 9 9h79q9 0 9 -9l-14 -477q0 -9 -9 -9h-51zM88 0q-9 0 -9 9v90q0 8 9 8h91q9 0 9 -8v-90q0 -9 -9 -9h-91z" />
    <glyph glyph-name="quotedbl" unicode="&#x22;" horiz-adv-x="364" 
d="M74 421q-9 0 -9 8v252q0 9 9 9h56q9 0 9 -9v-252q0 -8 -9 -8h-56zM235 421q-8 0 -8 8v252q0 9 8 9h56q9 0 9 -9v-252q0 -8 -9 -8h-56z" />
    <glyph glyph-name="numbersign" unicode="#" horiz-adv-x="645" 
d="M114 0q-10 0 -8 10l41 201h-103q-9 0 -9 9v45q0 9 9 9h117l30 152h-108q-8 0 -8 9v43q0 8 8 8h121l41 196q2 8 10 8h48q9 0 8 -10l-40 -187h160l40 189q2 8 9 8h48q10 0 8 -10l-39 -192h104q9 0 9 -8v-45q0 -9 -9 -9h-117l-30 -152h107q9 0 9 -9v-43q0 -9 -9 -9h-120
l-42 -205q-2 -8 -10 -8h-49q-9 0 -8 10l42 196h-160l-41 -198q-2 -8 -10 -8h-49zM227 274h160l30 152h-160z" />
    <glyph glyph-name="dollar" unicode="$" horiz-adv-x="577" 
d="M532 192q0 -83 -53 -137t-142 -63v-73q0 -9 -9 -9h-62q-8 0 -8 9v74q-89 12 -150.5 68t-64.5 162q0 8 9 8h81q8 0 8 -8q4 -76 50 -112t115 -36q57 0 92.5 28.5t35.5 77.5q0 23 -10 42.5t-22 31.5t-38.5 26t-41.5 20.5t-50 19.5q-39 15 -58.5 23t-52.5 26.5t-49.5 36.5
t-30 47.5t-13.5 65.5q0 77 51.5 125t138.5 54v72q0 9 8 9h62q9 0 9 -9v-75q76 -12 123.5 -58t50.5 -127q0 -9 -9 -9h-78q-9 0 -9 9q-2 56 -37.5 82.5t-94.5 26.5q-54 0 -86 -24.5t-32 -66.5q0 -19 9.5 -36t20 -28t36.5 -24.5t39.5 -19t47.5 -19.5q101 -40 137 -66
q77 -55 77 -144z" />
    <glyph glyph-name="percent" unicode="%" horiz-adv-x="751" 
d="M175 383q-36 0 -63 15.5t-41 40.5t-20.5 50.5t-6.5 51.5t6.5 52t20 51.5t40 41t61.5 15.5q63 0 97 -48.5t34 -111.5t-33 -110.5t-95 -47.5zM157 1q-5 0 -7.5 2.5t0.5 7.5l360 672q3 6 11 6h68q11 0 6 -10l-360 -672q-3 -6 -11 -6h-67zM173 451q27 0 42 27.5t15 63.5
t-15.5 62.5t-42.5 26.5t-42 -26.5t-15 -63.5q0 -36 15.5 -63t42.5 -27zM579 -2q-36 0 -63 15.5t-41 40.5t-20.5 51t-6.5 52q0 27 6.5 53t20 51.5t40 41t61.5 15.5q63 0 97 -48.5t34 -112.5q0 -63 -33.5 -111t-94.5 -48zM578 67q26 0 41 27t15 64t-15 64t-43 27
q-27 0 -42 -27.5t-15 -64.5t15.5 -63.5t43.5 -26.5z" />
    <glyph glyph-name="ampersand" unicode="&#x26;" horiz-adv-x="665" 
d="M658 11q11 -11 -4 -11h-102q-9 0 -12 5l-79 83q-78 -100 -202 -100q-92 0 -155.5 51t-63.5 140q0 137 156 197q-81 79 -81 156q0 78 52 121.5t126 43.5q73 0 122.5 -43t49.5 -120q0 -51 -33.5 -93.5t-108.5 -83.5l135 -139l82 137q4 7 9 7h82q13 0 7 -11l-122 -192z
M294 624q-39 0 -64 -26t-25 -67q0 -53 65 -120q59 31 84 60t25 63q0 38 -24 64t-61 26zM260 63q85 0 142 87l-158 169q-54 -23 -82 -55t-28 -82q0 -52 38 -85.5t88 -33.5z" />
    <glyph glyph-name="quotesingle" unicode="'" horiz-adv-x="208" 
d="M74 435q-9 0 -9 8v252q0 9 9 9h60q9 0 9 -9v-252q0 -8 -9 -8h-60z" />
    <glyph glyph-name="parenleft" unicode="(" horiz-adv-x="274" 
d="M182 -155q-6 0 -11 5q-54 72 -89 198t-35 244q0 113 33.5 230.5t88.5 201.5q5 6 11 6h53q11 0 6 -11q-117 -176 -117 -428q0 -257 116 -435q7 -11 -6 -11h-50z" />
    <glyph glyph-name="parenright" unicode=")" horiz-adv-x="273" 
d="M97 -155h-50q-13 0 -6 11q116 178 116 435q0 252 -117 428q-6 11 6 11h53q7 0 11 -6q55 -84 88.5 -201.5t33.5 -230.5q0 -118 -35 -244t-89 -198q-5 -5 -11 -5z" />
    <glyph glyph-name="asterisk" unicode="*" horiz-adv-x="344" 
d="M118 410q-6 -9 -13 -2l-32 25q-7 7 -1 12l79 93l-113 17q-9 2 -6 10l12 43q3 9 11 6l103 -46l-13 112q-2 10 8 10h40q11 0 9 -10l-16 -112l104 46q9 3 12 -6l11 -43q3 -8 -6 -10l-111 -17l78 -93q6 -6 -1 -12l-32 -25q-8 -8 -12 2l-56 105z" />
    <glyph glyph-name="plus" unicode="+" horiz-adv-x="650" 
d="M300 43q-9 0 -9 9v219h-214q-9 0 -9 9v50q0 9 9 9h214v219q0 9 9 9h51q8 0 8 -9v-219h215q8 0 8 -9v-50q0 -9 -8 -9h-215v-219q0 -9 -8 -9h-51z" />
    <glyph glyph-name="comma" unicode="," horiz-adv-x="266" 
d="M72 -152q-11 0 -8 10l41 142h-36q-9 0 -9 9v100q0 8 9 8h104q9 0 9 -8v-104q0 -4 -2 -10l-61 -139q-3 -8 -11 -8h-36z" />
    <glyph glyph-name="hyphen" unicode="-" horiz-adv-x="321" 
d="M38 217q-9 0 -9 8v51q0 9 9 9h245q9 0 9 -9v-51q0 -8 -9 -8h-245z" />
    <glyph glyph-name="period" unicode="." horiz-adv-x="233" 
d="M64 0q-9 0 -9 9v100q0 8 9 8h104q9 0 9 -8v-100q0 -9 -9 -9h-104z" />
    <glyph glyph-name="slash" unicode="/" horiz-adv-x="470" 
d="M51 -76q-5 0 -7 3.5t0 7.5l294 747q3 8 10 8h71q5 0 7 -3.5t0 -7.5l-295 -748q-3 -7 -10 -7h-70z" />
    <glyph glyph-name="zero" unicode="0" horiz-adv-x="551" 
d="M280 -10q-68 0 -117.5 30.5t-76.5 83t-39.5 112.5t-12.5 129t12 129t38.5 113t74.5 83.5t114 30.5q121 0 182.5 -101t61.5 -257q0 -99 -24.5 -176.5t-79 -127t-133.5 -49.5zM277 77q42 0 71 24.5t43.5 66.5t20.5 85t6 93t-6 93t-21 84t-45 65t-73 24q-146 0 -146 -267
q0 -51 6 -93.5t21.5 -84.5t46.5 -66t76 -24z" />
    <glyph glyph-name="one" unicode="1" horiz-adv-x="391" 
d="M210 0q-9 0 -9 9v574q-64 -71 -151 -80q-9 0 -9 8v72q0 9 8 10q80 9 154 92q7 5 11 5h73q9 0 9 -9v-672q0 -9 -9 -9h-77z" />
    <glyph glyph-name="two" unicode="2" horiz-adv-x="553" 
d="M55 0v82q0 54 19 96.5t49.5 69.5t67.5 49.5t74.5 41.5t68 39.5t49.5 50t19 67.5q0 55 -33.5 88t-85.5 33q-59 0 -93 -38.5t-35 -105.5q0 -8 -9 -8h-76q-9 0 -9 8q4 105 62.5 165.5t162.5 60.5q92 0 151 -56.5t59 -145.5q0 -66 -36 -115t-87 -79t-102.5 -56.5t-87.5 -63
t-36 -83.5v-18h351q9 0 9 -9v-64q0 -9 -9 -9h-443z" />
    <glyph glyph-name="three" unicode="3" horiz-adv-x="546" 
d="M273 -10q-101 0 -168.5 53t-70.5 152q0 9 9 9h72q9 0 9 -9q6 -57 48 -90t101 -33q61 0 105 35t44 95t-40.5 91.5t-100.5 31.5h-39q-9 0 -9 9v64q0 9 9 9h39q47 0 75.5 27t28.5 75q0 49 -35 78.5t-89 29.5q-52 0 -86.5 -29t-37.5 -78q-1 -8 -10 -8h-71q-9 0 -9 8
q0 88 60 139t154 51q92 0 153 -49t61 -133q0 -54 -29 -93.5t-69 -50.5v-7q61 -11 97 -53.5t38 -113.5q0 -101 -68 -155.5t-171 -54.5z" />
    <glyph glyph-name="four" unicode="4" horiz-adv-x="546" 
d="M520 256q9 0 9 -9v-62q0 -9 -9 -9h-96v-167q0 -9 -9 -9h-74q-9 0 -9 9v167h-294q-9 0 -9 9v65q0 6 3 11l305 424q4 5 11 5h67q9 0 9 -9v-425h96zM332 256v308l-213 -308h213z" />
    <glyph glyph-name="five" unicode="5" horiz-adv-x="549" 
d="M305 456q94 0 154.5 -63t60.5 -164q0 -105 -67.5 -172t-170.5 -67q-94 0 -163.5 56.5t-74.5 155.5q0 9 9 9h77q8 0 10 -9q7 -63 48.5 -95.5t96.5 -32.5q60 0 99 43t39 112q0 66 -39 107.5t-99 41.5q-35 0 -70 -18.5t-56 -48.5q-5 -6 -11 -6h-75q-10 0 -8 10l64 367
q2 8 10 8h341q9 0 9 -9v-62q0 -9 -9 -9h-279l-36 -208l2 -1q20 23 59 39t79 16z" />
    <glyph glyph-name="six" unicode="6" horiz-adv-x="538" 
d="M272 -9q-108 0 -173 73t-65 232q0 42 1 73t6.5 76t15 77t28 68t44.5 58.5t65 37t89 14.5q85 0 144 -43.5t68 -126.5q1 -4 -2 -7.5t-7 -3.5h-72q-8 0 -10 9q-13 92 -121 92q-153 0 -159 -241q58 67 157 67q100 0 161 -61.5t61 -163.5q0 -101 -65.5 -165.5t-165.5 -64.5z
M269 71q63 0 104 42t41 107t-40.5 106.5t-104.5 41.5q-63 0 -102 -40t-39 -105q0 -66 39.5 -109t101.5 -43z" />
    <glyph glyph-name="seven" unicode="7" horiz-adv-x="455" 
d="M128 0q-10 0 -7 10l223 598h-314q-9 0 -9 9v64q0 9 9 9h398q9 0 9 -9v-76q0 -7 -1 -11l-216 -587q-1 -7 -10 -7h-82z" />
    <glyph glyph-name="eight" unicode="8" horiz-adv-x="549" 
d="M276 -10q-107 0 -175 55.5t-68 143.5q0 65 38.5 116t99.5 65v4q-45 15 -74 57t-29 92q0 77 58.5 127t148.5 50t148 -50t58 -127q0 -51 -29 -93.5t-74 -55.5v-4q62 -16 100 -66.5t38 -114.5q0 -88 -67.5 -143.5t-172.5 -55.5zM277 405q48 0 80 30.5t32 77.5t-32 78t-80 31
q-50 0 -81.5 -30.5t-31.5 -76.5q0 -49 31.5 -79.5t81.5 -30.5zM274 70q63 0 104 36.5t41 94.5q0 57 -41 93.5t-104 36.5q-64 0 -104.5 -36.5t-40.5 -93.5q0 -58 40.5 -94.5t104.5 -36.5z" />
    <glyph glyph-name="nine" unicode="9" horiz-adv-x="538" 
d="M267 699q108 0 173 -73t65 -232q0 -42 -1 -73t-6.5 -76t-15 -77t-28 -68t-44.5 -58.5t-65 -37t-89 -14.5q-86 0 -145 43.5t-67 126.5q-2 11 9 11h72q9 0 9 -9q14 -92 122 -92q155 0 158 241q-56 -67 -157 -67q-99 0 -160.5 61.5t-61.5 163.5q0 101 66 165.5t166 64.5z
M270 619q-64 0 -104.5 -42t-40.5 -107t40.5 -106.5t104.5 -41.5q63 0 101.5 40t38.5 105q0 66 -39 109t-101 43z" />
    <glyph glyph-name="colon" unicode=":" horiz-adv-x="236" 
d="M65 369q-9 0 -9 9v100q0 9 9 9h104q9 0 9 -9v-100q0 -9 -9 -9h-104zM65 0q-9 0 -9 9v100q0 8 9 8h104q9 0 9 -8v-100q0 -9 -9 -9h-104z" />
    <glyph glyph-name="semicolon" unicode=";" horiz-adv-x="266" 
d="M66 369q-9 0 -9 9v100q0 9 9 9h104q9 0 9 -9v-100q0 -9 -9 -9h-104zM72 -152q-11 0 -8 10l41 142h-36q-9 0 -9 9v100q0 8 9 8h104q9 0 9 -8v-104q0 -4 -2 -10l-61 -139q-3 -8 -11 -8h-36z" />
    <glyph glyph-name="less" unicode="&#x3c;" horiz-adv-x="593" 
d="M505 81l-443 242q-4 2 -4 6t4 6l443 242q11 7 11 -6v-65q0 -5 -6 -11l-297 -160q-5 -2 -5 -6t5 -6l297 -158q6 -3 6 -10v-68q0 -13 -11 -6z" />
    <glyph glyph-name="equal" unicode="=" horiz-adv-x="519" 
d="M77 381q-9 0 -9 9v62q0 9 9 9h366q8 0 8 -9v-62q0 -9 -8 -9h-366zM77 195q-9 0 -9 9v62q0 9 9 9h366q8 0 8 -9v-62q0 -9 -8 -9h-366z" />
    <glyph glyph-name="greater" unicode="&#x3e;" horiz-adv-x="600" 
d="M100 81q-11 -7 -11 6v68q0 7 7 10l296 158q4 2 4 6t-4 6l-296 160q-7 5 -7 11v65q0 13 11 6l443 -242q5 -2 5 -6t-5 -6z" />
    <glyph glyph-name="question" unicode="?" horiz-adv-x="467" 
d="M200 193q-8 0 -8 9v94q0 25 5.5 44t19.5 33t23 20.5t30 19.5q27 15 39 23.5t25.5 31t13.5 53.5q0 49 -32 75.5t-83 26.5q-48 0 -81.5 -27t-37.5 -72q-2 -9 -10 -9h-64q-9 0 -9 9q5 78 59 127t138 49q87 0 144.5 -46t57.5 -133q0 -25 -5.5 -46t-11.5 -33.5t-21 -26.5
t-21.5 -19t-26 -16.5t-23.5 -13.5q-17 -11 -26.5 -19t-17 -21.5t-7.5 -30.5v-93q0 -9 -9 -9h-61zM188 0q-9 0 -9 9v90q0 8 9 8h89q8 0 8 -8v-90q0 -9 -8 -9h-89z" />
    <glyph glyph-name="at" unicode="@" horiz-adv-x="963" 
d="M485 -160q0 -9 -8 -9q-114 1 -209.5 60t-150.5 158.5t-55 216.5q0 180 123 306.5t299 126.5q180 0 304 -125t124 -303q0 -91 -35.5 -166.5t-100.5 -103.5l-163 -1q-50 36 -42 106q-27 -33 -67.5 -52t-83.5 -19q-73 0 -113 51t-40 130q0 68 25.5 133t78 111.5t120.5 46.5
q49 0 85 -23.5t46 -64.5l10 55q2 8 10 8h57q10 0 8 -10l-68 -352q-8 -37 5 -54l117 2q40 26 59 86.5t19 122.5q0 144 -103 247.5t-252 103.5q-146 0 -247.5 -105t-101.5 -255q0 -149 99 -254t243 -107q8 0 8 -9v-58zM428 108q75 0 121 69.5t46 149.5q0 105 -91 105
q-51 0 -90.5 -35t-58 -83.5t-18.5 -99.5q0 -106 91 -106z" />
    <glyph glyph-name="A" unicode="A" horiz-adv-x="599" 
d="M592 13q2 -13 -10 -13h-82q-6 0 -8 6l-47 150h-290l-47 -150q-2 -6 -8 -6h-82q-5 0 -8 4t-2 9l226 672q2 5 8 5h116q6 0 8 -5zM180 234h240l-119 379h-2z" />
    <glyph glyph-name="B" unicode="B" horiz-adv-x="647" 
d="M100 0q-9 0 -9 9v672q0 9 9 9h258q100 0 157.5 -49.5t57.5 -135.5q0 -57 -32.5 -95t-70.5 -48v-4q57 -5 97 -52t40 -116q0 -88 -58.5 -139t-154.5 -51h-294zM186 392h162q54 0 91.5 30t37.5 81q0 104 -121 104h-170v-215zM186 88h197q65 0 96.5 29.5t31.5 82.5
q0 52 -37 82t-91 30h-197v-224z" />
    <glyph glyph-name="C" unicode="C" horiz-adv-x="670" 
d="M354 -10q-146 0 -230 97t-84 258t84 258.5t229 97.5q69 0 130.5 -28t104 -87t46.5 -138q0 -10 -9 -10h-71q-7 0 -9 8q-11 79 -62 123.5t-130 44.5q-101 0 -160 -71.5t-59 -193.5q0 -125 59.5 -198.5t161.5 -73.5q73 0 127 47t63 121q2 8 9 8h71q9 0 9 -12
q-9 -116 -91 -183.5t-189 -67.5z" />
    <glyph glyph-name="D" unicode="D" horiz-adv-x="668" 
d="M100 0q-9 0 -9 9v672q0 9 9 9h177q170 0 260.5 -90t90.5 -259q0 -164 -91.5 -252.5t-260.5 -88.5h-176zM186 87h78q268 0 268 258q0 259 -257 259h-89v-517z" />
    <glyph glyph-name="E" unicode="E" horiz-adv-x="594" 
d="M100 0q-9 0 -9 9v672q0 9 9 9h434q9 0 9 -9v-66q0 -9 -9 -9h-348v-219h306q9 0 9 -9v-66q0 -9 -9 -9h-306v-219h348q9 0 9 -9v-66q0 -9 -9 -9h-434z" />
    <glyph glyph-name="F" unicode="F" horiz-adv-x="560" 
d="M100 0q-9 0 -9 9v672q0 9 9 9h436q9 0 9 -9v-66q0 -9 -9 -9h-350v-219h307q9 0 9 -9v-66q0 -9 -9 -9h-307v-294q0 -9 -9 -9h-77z" />
    <glyph glyph-name="G" unicode="G" horiz-adv-x="726" 
d="M641 330q9 0 9 -9v-316q0 -5 -5 -5h-58q-6 0 -6 4l-7 92q-76 -104 -221 -104q-148 0 -230.5 100t-82.5 255q0 99 34 177.5t107 127.5t176 49q126 0 207.5 -69.5t85.5 -182.5q0 -9 -9 -9h-74q-9 0 -9 8q-7 81 -62 124t-140 43q-111 0 -166 -75.5t-55 -192.5
q0 -118 55 -193t166 -75q90 0 147 44.5t57 129.5h-192q-9 0 -9 9v59q0 9 9 9h273z" />
    <glyph glyph-name="H" unicode="H" horiz-adv-x="703" 
d="M100 0q-9 0 -9 9v672q0 9 9 9h77q9 0 9 -9v-294h331v294q0 9 9 9h77q9 0 9 -9v-672q0 -9 -9 -9h-77q-9 0 -9 9v294h-331v-294q0 -9 -9 -9h-77z" />
    <glyph glyph-name="I" unicode="I" horiz-adv-x="277" 
d="M100 0q-9 0 -9 9v672q0 9 9 9h77q9 0 9 -9v-672q0 -9 -9 -9h-77z" />
    <glyph glyph-name="J" unicode="J" horiz-adv-x="369" 
d="M95 -10q-43 0 -74 8q-7 1 -7 10v70q0 10 10 7q35 -10 65 -10q118 0 118 163v443q0 9 9 9h78q9 0 9 -9v-451q0 -113 -51.5 -176.5t-156.5 -63.5z" />
    <glyph glyph-name="K" unicode="K" horiz-adv-x="633" 
d="M620 11q4 -5 2 -8t-7 -3h-102q-8 0 -11 5l-244 319l-72 -77v-238q0 -9 -9 -9h-77q-9 0 -9 9v672q0 9 9 9h77q9 0 9 -9v-316l287 320q4 5 11 5h99q5 0 7 -3t-2 -8l-270 -290z" />
    <glyph glyph-name="L" unicode="L" horiz-adv-x="490" 
d="M100 0q-9 0 -9 9v672q0 9 9 9h77q9 0 9 -9v-597h286q9 0 9 -9v-66q0 -9 -9 -9h-372z" />
    <glyph glyph-name="M" unicode="M" horiz-adv-x="863" 
d="M100 0q-9 0 -9 9v672q0 9 9 9h133q8 0 11 -8l187 -585l187 585q3 8 11 8h134q9 0 9 -9v-672q0 -9 -9 -9h-78q-8 0 -8 9v584h-4l-186 -586q-3 -7 -11 -7h-90q-8 0 -11 7l-185 586h-4v-584q0 -9 -9 -9h-77z" />
    <glyph glyph-name="N" unicode="N" horiz-adv-x="734" 
d="M100 0q-9 0 -9 9v672q0 9 9 9h106q5 0 11 -6l326 -562h5v559q0 9 9 9h78q8 0 8 -9v-672q0 -9 -8 -9h-109q-7 0 -11 6l-325 566h-4v-563q0 -9 -9 -9h-77z" />
    <glyph glyph-name="O" unicode="O" horiz-adv-x="712" 
d="M356 -10q-146 0 -231 96t-85 259t85 259t231 96t231 -96t85 -259t-85 -259t-231 -96zM356 76q101 0 160.5 71.5t59.5 197.5q0 127 -59 198t-161 71q-101 0 -160 -71t-59 -198q0 -126 59 -197.5t160 -71.5z" />
    <glyph glyph-name="P" unicode="P" horiz-adv-x="639" 
d="M100 0q-9 0 -9 9v672q0 9 9 9h282q107 0 169 -57.5t62 -159.5q0 -100 -60.5 -155t-170.5 -55h-196v-254q0 -9 -9 -9h-77zM186 345h194q138 0 138 127q0 64 -35 99t-103 35h-194v-261z" />
    <glyph glyph-name="Q" unicode="Q" horiz-adv-x="712" 
d="M679 -92q9 0 9 -9v-60q0 -9 -9 -9q-53 1 -90 13t-55 29.5t-35.5 37.5t-31.5 37.5t-42.5 29.5t-69.5 13q-145 1 -230 96.5t-85 258.5t85 259t231 96t231 -96t85 -259q0 -119 -46.5 -204t-131.5 -123q22 -12 41.5 -33t31.5 -36t40.5 -27.5t71.5 -13.5zM137 345
q0 -126 59 -197.5t160 -71.5t160.5 71.5t59.5 197.5q0 127 -59 198t-161 71q-101 0 -160 -71t-59 -198z" />
    <glyph glyph-name="R" unicode="R" horiz-adv-x="648" 
d="M472 274l139 -264q5 -11 -6 -11h-89q-7 0 -10 6l-129 258h-191v-254q0 -9 -9 -9h-77q-9 0 -9 9v672q0 9 9 9h282q107 0 169 -57.5t62 -159.5q0 -78 -36 -128.5t-105 -70.5zM186 606v-261h194q138 0 138 127q0 64 -35 99t-103 35h-194z" />
    <glyph glyph-name="S" unicode="S" horiz-adv-x="577" 
d="M304 -10q-47 0 -90 12t-82 38t-63 73t-26 110q0 8 9 8h81q8 0 8 -8q4 -76 50 -112t115 -36q57 0 92.5 28.5t35.5 77.5q0 23 -10 42.5t-22 31.5t-38.5 26t-41.5 20.5t-50 19.5q-39 15 -58.5 23t-52.5 26.5t-49.5 36.5t-30 47.5t-13.5 65.5q0 83 59 131.5t156 48.5
t160.5 -46.5t67.5 -142.5q0 -9 -9 -9h-78q-9 0 -9 9q-2 56 -37.5 82.5t-94.5 26.5q-54 0 -86 -24.5t-32 -66.5q0 -19 9.5 -36t20 -28t36.5 -24.5t39.5 -19t47.5 -19.5q101 -40 137 -66q77 -55 77 -144q0 -91 -63 -146.5t-165 -55.5z" />
    <glyph glyph-name="T" unicode="T" horiz-adv-x="600" 
d="M262 0q-9 0 -9 9v598h-218q-9 0 -9 9v65q0 9 9 9h531q9 0 9 -9v-65q0 -9 -9 -9h-218v-598q0 -9 -9 -9h-77z" />
    <glyph glyph-name="U" unicode="U" horiz-adv-x="663" 
d="M331 -10q-119 0 -184 67.5t-65 188.5v435q0 9 8 9h78q9 0 9 -9v-439q0 -77 41 -121t113 -44t113.5 44t41.5 121v439q0 9 8 9h78q9 0 9 -9v-430q0 -123 -65.5 -192t-184.5 -69z" />
    <glyph glyph-name="V" unicode="V" horiz-adv-x="608" 
d="M591 690q9 0 7 -10l-225 -673q-3 -7 -10 -7h-117q-6 0 -10 7l-225 673q-3 10 7 10h80q8 0 10 -7l196 -611l195 611q3 7 11 7h81z" />
    <glyph glyph-name="W" unicode="W" horiz-adv-x="909" 
d="M182 0q-8 0 -10 8l-161 672q-3 10 7 10h81q8 0 10 -8l131 -592l154 593q0 7 9 7h102q8 0 10 -7l153 -593l131 592q2 8 10 8h81q10 0 7 -10l-161 -672q-2 -8 -10 -8h-112q-8 0 -10 7l-150 584l-150 -584q-2 -7 -10 -7h-112z" />
    <glyph glyph-name="X" unicode="X" horiz-adv-x="584" 
d="M19 0q-12 0 -5 11l221 334l-220 334q-7 11 5 11h90q5 0 11 -6l171 -271l170 271q6 6 11 6h91q10 0 5 -11l-220 -334l221 -334q7 -11 -5 -11h-91q-5 0 -11 6l-172 266l-170 -266q-6 -6 -12 -6h-90z" />
    <glyph glyph-name="Y" unicode="Y" horiz-adv-x="660" 
d="M290 0q-8 0 -8 9v261l-272 409q-7 11 6 11h90q8 0 11 -5l213 -329l213 329q4 5 11 5h91q11 0 6 -11l-274 -409v-261q0 -9 -9 -9h-78z" />
    <glyph glyph-name="Z" unicode="Z" horiz-adv-x="576" 
d="M559 621q0 -6 -4 -10l-419 -527h414q9 0 9 -9v-66q0 -9 -9 -9h-524q-9 0 -9 9v56q0 6 4 11l419 530h-392q-9 0 -9 9v66q0 9 9 9h502q9 0 9 -9v-60z" />
    <glyph glyph-name="bracketleft" unicode="[" horiz-adv-x="277" 
d="M82 -159q-9 0 -9 8v872q0 9 9 9h170q9 0 9 -9v-51q0 -9 -9 -9h-103v-750h103q9 0 9 -9v-53q0 -8 -9 -8h-170z" />
    <glyph glyph-name="backslash" unicode="\" horiz-adv-x="470" 
d="M348 -76q-7 0 -10 7l-294 748q-2 4 0 7.5t7 3.5h70q7 0 10 -8l295 -747q2 -4 0 -7.5t-7 -3.5h-71z" />
    <glyph glyph-name="bracketright" unicode="]" horiz-adv-x="277" 
d="M26 -159q-10 0 -10 10v50q0 10 10 10h101v750h-101q-10 0 -10 10v49q0 10 10 10h167q10 0 10 -10v-869q0 -10 -10 -10h-167z" />
    <glyph glyph-name="asciicircum" unicode="^" horiz-adv-x="397" 
d="M21 321q-11 0 -6 11l177 345q7 10 12 0l178 -345q2 -4 0.5 -7.5t-6.5 -3.5h-70q-6 0 -10 7l-98 208l-97 -208q-3 -7 -10 -7h-70z" />
    <glyph glyph-name="underscore" unicode="_" horiz-adv-x="391" 
d="M8 -68q-9 0 -9 8v51q0 9 9 9h375q9 0 9 -9v-51q0 -8 -9 -8h-375z" />
    <glyph glyph-name="grave" unicode="`" horiz-adv-x="197" 
d="M134 548q-7 0 -10 4l-124 103q-3 3 -3.5 5.5t1.5 4t6 1.5h88q6 0 11 -5l93 -103q4 -4 2.5 -7t-6.5 -3h-58z" />
    <glyph glyph-name="a" unicode="a" horiz-adv-x="531" 
d="M209 -11q-76 0 -121 39.5t-45 111.5q0 94 92 134q38 16 118.5 28.5t102.5 21.5q28 13 28 33q0 43 -30.5 66t-87.5 23q-123 0 -131 -82q-1 -9 -9 -9h-67q-9 0 -9 9q3 79 65 118.5t147 39.5q90 0 148 -44t58 -131v-338q0 -9 -9 -9h-66q-9 0 -9 9v61q-69 -81 -175 -81z
M226 64q91 0 151 91q7 11 7 25v93q-43 -21 -110 -32t-92 -21q-55 -22 -55 -76q0 -80 99 -80z" />
    <glyph glyph-name="b" unicode="b" horiz-adv-x="596" 
d="M331 -11q-113 0 -173 83v-63q0 -9 -9 -9h-72q-9 0 -9 9v672q0 9 9 9h73q9 0 9 -9v-242q59 83 172 83q109 0 165.5 -73.5t56.5 -192.5q0 -120 -56.5 -193.5t-165.5 -73.5zM305 69q78 0 118 48.5t40 138.5q0 88 -40 136.5t-118 48.5q-70 0 -110 -50t-40 -135q0 -87 40 -137
t110 -50z" />
    <glyph glyph-name="c" unicode="c" horiz-adv-x="551" 
d="M287 -11q-110 0 -177.5 69.5t-67.5 195.5q0 128 67.5 198t177.5 70q94 0 157.5 -52t72.5 -145q2 -10 -8 -10h-70q-9 0 -10 9q-7 57 -44.5 87.5t-96.5 30.5q-72 0 -113.5 -47t-41.5 -141q0 -92 41.5 -138.5t113.5 -46.5q58 0 95.5 29.5t44.5 85.5q2 9 10 9h70q9 0 9 -10
q-10 -91 -73 -142.5t-157 -51.5z" />
    <glyph glyph-name="d" unicode="d" horiz-adv-x="596" 
d="M265 -11q-109 0 -165.5 73.5t-56.5 193.5q0 119 56.5 192.5t165.5 73.5q113 0 172 -83v242q0 9 9 9h73q9 0 9 -9v-672q0 -9 -9 -9h-72q-9 0 -9 9v63q-60 -83 -173 -83zM291 69q70 0 110 50t40 137q0 85 -40 135t-110 50q-78 0 -118 -48.5t-40 -136.5q0 -90 40 -138.5
t118 -48.5z" />
    <glyph glyph-name="e" unicode="e" horiz-adv-x="536" 
d="M277 522q60 0 104.5 -22.5t69.5 -60.5t36.5 -82t11.5 -94q0 -19 -1 -26q-2 -9 -11 -9h-357q5 -76 43 -119t106 -43q110 0 129 98q3 9 11 9h60q11 0 9 -13q-15 -83 -71 -126.5t-133 -43.5q-116 0 -179 75.5t-63 189.5t59.5 190.5t175.5 76.5zM275 445q-68 0 -104.5 -40.5
t-40.5 -107.5h282q-1 69 -35 108.5t-102 39.5z" />
    <glyph glyph-name="f" unicode="f" horiz-adv-x="337" 
d="M114 0q-9 0 -9 9v433h-81q-9 0 -9 9v52q0 9 9 9h81v33q0 66 40.5 105.5t110.5 39.5h59q9 0 9 -9v-53q0 -9 -9 -9h-48q-33 0 -52 -20t-19 -53v-34h119q9 0 9 -9v-52q0 -9 -9 -9h-119v-433q0 -9 -9 -9h-73z" />
    <glyph glyph-name="g" unicode="g" horiz-adv-x="608" 
d="M294 -188q-105 0 -168.5 43.5t-70.5 127.5q-1 9 8 9h74q8 0 9 -8q7 -47 44.5 -74.5t102.5 -27.5q69 0 106.5 32.5t37.5 87.5v82q-55 -76 -168 -76q-109 0 -168 72.5t-59 186.5q0 113 60 184t172 71q105 0 158 -72h4v53q0 9 9 9h74q9 0 9 -9v-492q0 -96 -62.5 -147.5
t-171.5 -51.5zM292 84q77 0 114 47t37 126q0 81 -37.5 135t-116.5 54q-77 0 -116.5 -51t-39.5 -131q0 -78 40 -129t119 -51z" />
    <glyph glyph-name="h" unicode="h" horiz-adv-x="556" 
d="M77 0q-9 0 -9 9v672q0 9 9 9h73q9 0 9 -9v-235q23 35 65.5 55.5t90.5 20.5q79 0 125 -51t46 -137v-325q0 -9 -9 -9h-73q-9 0 -9 9v312q0 121 -103 121q-58 0 -95.5 -40t-37.5 -100v-293q0 -9 -9 -9h-73z" />
    <glyph glyph-name="i" unicode="i" horiz-adv-x="236" 
d="M77 590q-9 0 -9 9v82q0 9 9 9h83q8 0 8 -9v-82q0 -9 -8 -9h-83zM81 0q-9 0 -9 9v494q0 9 9 9h74q9 0 9 -9v-494q0 -9 -9 -9h-74z" />
    <glyph glyph-name="j" unicode="j" horiz-adv-x="248" 
d="M88 589q-9 0 -9 9v83q0 9 9 9h83q9 0 9 -9v-83q0 -9 -9 -9h-83zM-12 -178q-9 0 -9 9v57q0 9 9 9q47 3 72 29.5t25 68.5v508q0 9 9 9h73q9 0 9 -9v-500q0 -176 -188 -181z" />
    <glyph glyph-name="k" unicode="k" horiz-adv-x="511" 
d="M513 11q4 -5 2 -8t-7 -3h-91q-6 0 -11 5l-183 243l-64 -62v-177q0 -9 -9 -9h-73q-9 0 -9 9v672q0 9 9 9h73q9 0 9 -9v-386l217 212q5 5 11 5h90q6 0 7.5 -3t-2.5 -8l-200 -195z" />
    <glyph glyph-name="l" unicode="l" horiz-adv-x="251" 
d="M88 0q-8 0 -8 9v672q0 9 8 9h74q9 0 9 -9v-672q0 -9 -9 -9h-74z" />
    <glyph glyph-name="m" unicode="m" horiz-adv-x="831" 
d="M77 0q-9 0 -9 9v494q0 9 9 9h72q9 0 9 -9v-52q48 71 143 71q102 0 137 -86q47 88 160 86q79 -1 121 -51t42 -138v-324q0 -9 -9 -9h-73q-9 0 -9 9v319q0 116 -97 116q-57 0 -85.5 -39.5t-28.5 -102.5v-293q0 -9 -9 -9h-73q-9 0 -9 9v320q0 115 -94 115q-58 0 -86.5 -39.5
t-28.5 -102.5v-293q0 -9 -9 -9h-73z" />
    <glyph glyph-name="n" unicode="n" horiz-adv-x="556" 
d="M77 0q-9 0 -9 9v494q0 9 9 9h73q9 0 9 -9v-59q50 78 155 78q79 0 125.5 -51t46.5 -137v-325q0 -9 -9 -9h-73q-9 0 -9 9v308q0 125 -101 125q-60 0 -97.5 -39.5t-37.5 -105.5v-288q0 -9 -9 -9h-73z" />
    <glyph glyph-name="o" unicode="o" horiz-adv-x="575" 
d="M287 -11q-110 0 -177.5 69.5t-67.5 195.5q0 128 67.5 198t177.5 70q109 0 177 -70t68 -198q0 -126 -68 -195.5t-177 -69.5zM288 69q73 0 114 46.5t41 138.5q0 94 -41 141t-114 47q-72 0 -113.5 -47t-41.5 -141q0 -92 41.5 -138.5t113.5 -46.5z" />
    <glyph glyph-name="p" unicode="p" horiz-adv-x="595" 
d="M77 -178q-9 0 -9 9v672q0 9 9 9h72q8 0 8 -9v-65q62 84 174 84q103 0 162 -74.5t59 -191.5q0 -118 -59.5 -192.5t-162.5 -74.5q-116 0 -172 81v-239q0 -9 -9 -9h-72zM304 66q73 0 115.5 50.5t42.5 140.5q0 88 -42.5 138t-115.5 50q-70 0 -111.5 -50.5t-41.5 -137.5
q0 -89 41.5 -140t111.5 -51z" />
    <glyph glyph-name="q" unicode="q" horiz-adv-x="595" 
d="M518 -178h-72q-9 0 -9 9v239q-56 -81 -173 -81q-103 0 -162.5 74.5t-59.5 192.5q0 117 59.5 191.5t162.5 74.5q112 0 173 -84v65q0 9 9 9h72q9 0 9 -9v-672q0 -9 -9 -9zM290 66q71 0 112.5 51t41.5 140q0 87 -41.5 137.5t-112.5 50.5q-73 0 -115 -50t-42 -138
q0 -90 42 -140.5t115 -50.5z" />
    <glyph glyph-name="r" unicode="r" horiz-adv-x="345" 
d="M77 0q-9 0 -9 9v494q0 9 9 9h72q9 0 9 -9v-60q38 77 122 77q20 0 43 -6q8 -2 8 -10v-69q0 -7 -6 -7h-7q-22 7 -45 7q-53 0 -83.5 -40t-30.5 -100v-286q0 -9 -9 -9h-73z" />
    <glyph glyph-name="s" unicode="s" horiz-adv-x="487" 
d="M267 -11q-108 0 -163 42q-59 43 -63 133q0 9 9 9h67q9 0 9 -9q3 -53 35 -79q35 -25 99 -24q43 0 71 20.5t28 60.5q0 17 -8 30t-17.5 21t-31.5 16t-34.5 11t-43.5 10q-32 7 -50.5 12t-45.5 16.5t-41 25t-25 35.5t-11 51q0 73 51 112.5t136 39.5q81 0 132 -35
q64 -43 67 -123q0 -9 -9 -9h-63q-9 0 -9 9q-3 45 -34 67q-31 20 -83 20q-46 0 -74.5 -19.5t-28.5 -52.5q0 -31 29.5 -45.5t96.5 -30.5q3 -1 5 -1.5t5 -1t6 -1.5q39 -10 63.5 -18.5t52 -25t40.5 -42.5t13 -62q0 -76 -51 -119t-129 -43z" />
    <glyph glyph-name="t" unicode="t" horiz-adv-x="327" 
d="M221 0q-130 0 -130 135v307h-67q-9 0 -9 9v52q0 9 9 9h67v129q0 9 9 9h73q9 0 9 -9v-129h112q8 0 8 -9v-52q0 -9 -8 -9h-112v-286q0 -46 15.5 -64.5t53.5 -18.5h43q8 0 8 -8v-56q0 -9 -8 -9h-73z" />
    <glyph glyph-name="u" unicode="u" horiz-adv-x="556" 
d="M245 -9q-81 0 -128 51.5t-47 136.5v324q0 9 9 9h73q9 0 9 -9v-308q0 -121 103 -121q60 0 96.5 39t36.5 101v289q0 9 9 9h74q8 0 8 -9v-494q0 -9 -8 -9h-74q-9 0 -9 9v60q-56 -78 -152 -78z" />
    <glyph glyph-name="v" unicode="v" horiz-adv-x="542" 
d="M511 512q10 0 7 -10l-182 -495q-3 -7 -11 -7h-108q-8 0 -11 7l-182 495q-3 10 7 10h83q8 0 10 -7l147 -435l147 435q4 7 11 7h82z" />
    <glyph glyph-name="w" unicode="w" horiz-adv-x="746" 
d="M717 512q9 0 7 -10l-114 -494q-2 -8 -9 -8h-112q-7 0 -9 7l-107 385l-106 -385q-3 -7 -10 -7h-112q-8 0 -10 8l-113 494q-2 10 8 10h81q8 0 10 -8l85 -431l123 432q3 7 10 7h67q6 0 10 -7l124 -432l86 431q2 8 9 8h82z" />
    <glyph glyph-name="x" unicode="x" horiz-adv-x="517" 
d="M17 0q-13 0 -6 11l193 247l-193 243q-7 11 6 11h83q7 0 12 -5l148 -191l146 191q5 5 11 5h84q5 0 7 -3t-2 -8l-192 -243l192 -247q4 -5 2 -8t-7 -3h-84q-7 0 -11 5l-146 195l-148 -195q-5 -5 -12 -5h-83z" />
    <glyph glyph-name="y" unicode="y" horiz-adv-x="490" 
d="M39 -178q-9 0 -9 9v59q0 9 9 9q41 0 69.5 8t47 25t27 30.5t20.5 37.5l-191 501q-2 11 7 11h81q8 0 11 -7l135 -399l134 399q4 7 10 7h82q9 0 7 -11l-199 -523q-35 -93 -92.5 -124t-148.5 -32z" />
    <glyph glyph-name="z" unicode="z" horiz-adv-x="458" 
d="M434 445q0 -6 -4 -10l-292 -358h284q9 0 9 -9v-59q0 -9 -9 -9h-387q-9 0 -9 9v52q0 6 4 10l297 365h-283q-9 0 -9 9v58q0 9 9 9h381q9 0 9 -9v-58z" />
    <glyph glyph-name="braceleft" unicode="{" horiz-adv-x="293" 
d="M212 -206q-56 0 -83 36t-27 94v234q0 56 -56 71q-8 2 -8 10v56q0 9 8 9q56 16 56 71v235q0 58 27 93.5t83 35.5l48 -1q9 0 9 -9v-54q0 -9 -9 -9q-41 3 -58.5 -10.5t-17.5 -50.5v-237q0 -35 -15.5 -58.5t-47.5 -42.5q32 -21 47.5 -43.5t15.5 -57.5v-238q0 -36 17.5 -49.5
t58.5 -11.5q9 2 9 -8v-54q0 -9 -9 -9z" />
    <glyph glyph-name="bar" unicode="|" horiz-adv-x="250" 
d="M101 -76q-9 0 -9 9v807q0 9 9 9h49q8 0 8 -9v-807q0 -9 -8 -9h-49z" />
    <glyph glyph-name="braceright" unicode="}" horiz-adv-x="292" 
d="M80 -206l-48 2q-8 0 -8 9v54q0 9 9 8q41 -2 58.5 11.5t17.5 49.5v238q0 35 15 58t47 43q-62 38 -62 101v237q0 37 -17.5 50.5t-58.5 10.5q-9 0 -9 9v54q0 9 8 9l48 1q57 0 83.5 -35.5t26.5 -93.5v-235q0 -54 56 -71q8 0 8 -9v-56q0 -8 -8 -10q-56 -15 -56 -71v-234
q0 -58 -26.5 -94t-83.5 -36z" />
    <glyph glyph-name="asciitilde" unicode="~" horiz-adv-x="488" 
d="M335 189q-31 0 -59 15t-45 33t-38.5 33t-42.5 15q-48 0 -46 -72q0 -9 -9 -9h-48q-9 0 -9 9q1 62 29.5 99.5t81.5 37.5q31 0 56.5 -9.5t42 -23.5t30.5 -28t29 -23.5t32 -9.5q28 0 39.5 20t12.5 62q0 8 9 8h52q9 0 9 -10q-2 -70 -35 -108.5t-91 -38.5z" />
    <glyph glyph-name="exclamdown" unicode="&#xa1;" horiz-adv-x="267" 
d="M89 405q-10 0 -10 10v87q0 10 10 10h89q10 0 10 -10v-87q0 -10 -10 -10h-89zM95 -181q-10 0 -10 10l14 478q0 10 10 10h49q10 0 10 -10l14 -478q0 -10 -10 -10h-77z" />
    <glyph glyph-name="cent" unicode="&#xa2;" horiz-adv-x="551" 
d="M508 193q9 0 9 -10q-8 -79 -58 -129t-127 -62v-91q0 -9 -9 -9h-59q-9 0 -9 9v90q-97 10 -155 78.5t-58 184.5q0 118 58 187t155 79v91q0 9 9 9h59q9 0 9 -9v-92q78 -12 128 -62.5t57 -131.5q2 -10 -8 -10h-70q-9 0 -10 9q-7 57 -44.5 87.5t-96.5 30.5q-72 0 -113.5 -47
t-41.5 -141q0 -92 41.5 -138.5t113.5 -46.5q58 0 95.5 29.5t44.5 85.5q2 9 10 9h70z" />
    <glyph glyph-name="sterling" unicode="&#xa3;" horiz-adv-x="549" 
d="M41 0q-9 0 -9 9v56q0 7 6 11q21 12 35.5 22.5t35.5 30.5t32 48t11 61q0 36 -12 67h-97q-9 0 -9 9v59q0 9 9 9h78q-21 63 -21 112q0 92 54.5 150t141.5 58q79 0 128 -40.5t63 -110.5q3 -10 -7 -10h-67q-8 0 -10 8q-16 77 -110 77q-53 0 -84.5 -36t-31.5 -99q0 -57 23 -109
h205q8 0 8 -9v-59q0 -9 -8 -9h-186q8 -24 8 -66q0 -32 -8 -61t-19 -46.5t-22 -30.5t-19 -19l-8 -5h380q9 0 9 -9v-59q0 -9 -9 -9h-490z" />
    <glyph glyph-name="currency" unicode="&#xa4;" horiz-adv-x="614" 
d="M125 37q-6 -8 -13 -1l-67 65q-6 6 0 12l90 81q-34 49 -34 113q0 63 34 112l-96 75q-9 5 -2 12l67 65q6 8 13 -1l73 -93q47 36 113 36q63 0 112 -35l78 89q5 6 12 1l67 -66q7 -7 -1 -12l-101 -71q33 -47 33 -112t-33 -113l99 -81q5 -5 1 -13l-67 -64q-7 -9 -13 0l-75 100
q-48 -35 -112 -35t-113 36zM302 185q51 1 82 34.5t31 87.5t-31 87.5t-82 34.5q-51 -1 -81.5 -34.5t-30.5 -87.5t30.5 -87.5t81.5 -34.5z" />
    <glyph glyph-name="yen" unicode="&#xa5;" horiz-adv-x="605" 
d="M271 0q-9 0 -9 9v79h-138q-9 0 -9 9v47q0 9 9 9h138v105h-138q-9 0 -9 8v47q0 9 9 9h111l-225 357q-7 11 6 11h71q6 0 10 -6l205 -331l205 331q6 6 11 6h71q11 0 6 -11l-226 -357h111q9 0 9 -9v-47q0 -8 -9 -8h-138v-105h138q9 0 9 -9v-47q0 -9 -9 -9h-138v-79
q0 -9 -8 -9h-63z" />
    <glyph glyph-name="brokenbar" unicode="&#xa6;" horiz-adv-x="254" 
d="M99 372q-8 0 -8 9v300q0 9 8 9h56q9 0 9 -9v-300q0 -9 -9 -9h-56zM99 -76q-8 0 -8 9v289q0 9 8 9h56q9 0 9 -9v-289q0 -9 -9 -9h-56z" />
    <glyph glyph-name="section" unicode="&#xa7;" horiz-adv-x="520" 
d="M268 -9q-182 0 -203 153q0 10 8 10h69q7 0 9 -8q20 -80 120 -80q107 0 107 71q0 33 -30 50t-73 24.5t-86 18t-73 40t-30 79.5q0 69 52 110q-51 33 -51 98q0 67 51 105t128 38q70 0 122 -34.5t64 -109.5q3 -9 -8 -9h-64q-8 0 -10 9q-10 71 -106 71q-45 0 -72 -19.5
t-27 -52.5q0 -31 30 -47t73 -23.5t86 -18.5t73 -41.5t30 -82.5q0 -68 -48 -107q48 -34 48 -97q0 -74 -54 -110.5t-135 -36.5zM330 270q52 24 44 74q-1 20 -12.5 35t-32.5 23.5t-37 13.5t-42.5 9.5t-34.5 6.5q-24 -10 -36.5 -31t-10.5 -43q1 -19 12 -33.5t31.5 -23
t38.5 -13.5t43.5 -10t36.5 -8z" />
    <glyph glyph-name="dieresis" unicode="&#xa8;" horiz-adv-x="289" 
d="M28 566q-9 0 -9 8v83q0 9 9 9h69q8 0 8 -9v-83q0 -8 -8 -8h-69zM192 566q-9 0 -9 8v83q0 9 9 9h69q9 0 9 -9v-83q0 -8 -9 -8h-69z" />
    <glyph glyph-name="copyright" unicode="&#xa9;" horiz-adv-x="816" 
d="M407 -26q-151 0 -259 109t-108 262q0 154 108 263t259 109q152 0 260.5 -109t108.5 -263q0 -153 -108.5 -262t-260.5 -109zM407 27q129 0 222 94t93 224t-93 224.5t-222 94.5q-128 0 -221 -94.5t-93 -224.5t93 -224t221 -94zM415 140q-87 0 -134 58t-47 146t46.5 146
t133.5 58q61 0 104.5 -34.5t51.5 -105.5q0 -9 -9 -9h-55q-8 0 -9 8q-9 70 -83 70q-55 0 -82.5 -37.5t-27.5 -95.5t27 -95t82 -37q76 0 84 72q0 9 9 9h56q10 0 8 -13q-9 -69 -53 -104.5t-102 -35.5z" />
    <glyph glyph-name="ordfeminine" unicode="&#xaa;" horiz-adv-x="350" 
d="M143 353q-52 0 -83 27.5t-31 76.5q0 64 63 91q25 11 80 19.5t71 15.5q19 8 19 22q0 61 -80 61q-85 0 -90 -56q-2 -6 -6 -6h-46q-6 0 -6 6q2 54 44.5 81t100.5 27q61 0 101 -30t40 -90v-231q0 -6 -7 -6h-45q-6 0 -6 6v42q-47 -56 -119 -56zM154 405q64 0 103 62q5 6 5 17
v63q-29 -14 -75 -21t-63 -14q-38 -16 -38 -52q0 -55 68 -55z" />
    <glyph glyph-name="guillemotleft" unicode="&#xab;" horiz-adv-x="520" 
d="M255 124q0 -6 -3.5 -7.5t-7.5 2.5l-174 174q-5 7 0 13l174 172q11 11 11 -4v-71q0 -5 -5 -10l-88 -93l88 -94q5 -5 5 -10v-72zM455 124q0 -6 -3.5 -7.5t-7.5 2.5l-174 174q-5 7 0 13l174 172q11 11 11 -4v-71q0 -5 -5 -10l-88 -93l88 -94q5 -5 5 -10v-72z" />
    <glyph glyph-name="registered" unicode="&#xae;" horiz-adv-x="621" 
d="M310 172q-107 0 -182.5 77t-75.5 187t75.5 187t182.5 77t183 -77.5t76 -186.5t-76 -186.5t-183 -77.5zM310 216q88 0 153 65.5t65 154.5t-65 155t-153 66t-152.5 -66t-64.5 -155t64.5 -154.5t152.5 -65.5zM231 299q-9 0 -9 9v253q0 9 9 9h97q45 0 69.5 -21t24.5 -59
q0 -58 -54 -77l63 -103q7 -11 -6 -11h-42q-9 0 -10 6l-56 102h-41v-99q0 -9 -9 -9h-36zM272 453h56q44 0 44 37t-44 37h-56v-74z" />
    <glyph glyph-name="macron" unicode="&#xaf;" horiz-adv-x="321" 
d="M37 580q-9 0 -9 9v39q0 8 9 8h248q9 0 9 -8v-39q0 -9 -9 -9h-248z" />
    <glyph glyph-name="degree" unicode="&#xb0;" horiz-adv-x="374" 
d="M187 400q-64 0 -107.5 43.5t-43.5 107.5q0 63 43.5 106t107.5 43t107.5 -43t43.5 -106q0 -64 -43.5 -107.5t-107.5 -43.5zM187 466q36 0 60.5 24.5t24.5 60.5q0 35 -25 59.5t-60 24.5q-36 0 -60.5 -24.5t-24.5 -59.5q0 -37 24.5 -61t60.5 -24z" />
    <glyph glyph-name="plusminus" unicode="&#xb1;" horiz-adv-x="650" 
d="M300 52q-9 0 -9 9v210h-214q-9 0 -9 9v50q0 9 9 9h214v219q0 9 9 9h51q8 0 8 -9v-219h215q8 0 8 -9v-50q0 -9 -8 -9h-215v-210q0 -9 -8 -9h-51zM78 -68q-9 0 -9 8v51q0 9 9 9h495q9 0 9 -9v-51q0 -8 -9 -8h-495z" />
    <glyph glyph-name="acute" unicode="&#xb4;" horiz-adv-x="197" 
d="M11 548q-6 0 -7.5 3t2.5 8l93 102q4 5 11 5h87q4 0 6 -1.5t1.5 -4t-3.5 -5.5l-131 -103q-5 -4 -11 -4h-48z" />
    <glyph glyph-name="uni00B5" unicode="&#xb5;" horiz-adv-x="497" 
d="M83 -130q-8 0 -8 9v600q0 9 8 9h72q9 0 9 -9v-280q0 -129 94 -129q56 0 97.5 42.5t41.5 98.5v268q0 9 8 9h72q9 0 9 -9v-470q0 -9 -9 -9h-72q-8 0 -8 9v70q-19 -36 -59 -63t-88 -27q-47 0 -86 21l-9 -131q0 -9 -10 -9h-62z" />
    <glyph glyph-name="paragraph" unicode="&#xb6;" horiz-adv-x="558" 
d="M269 -140q-9 0 -9 9v435q-90 0 -155.5 52.5t-65.5 140.5t65.5 140.5t155.5 52.5h56q8 0 8 -9v-812q0 -9 -8 -9h-47zM421 -140q-9 0 -9 9v812q0 9 9 9h48q9 0 9 -9v-812q0 -9 -9 -9h-48z" />
    <glyph glyph-name="periodcentered" unicode="&#xb7;" horiz-adv-x="243" 
d="M121 332q-27 0 -46 19.5t-19 46.5q0 28 18.5 46.5t46.5 18.5q27 0 46.5 -19t19.5 -46t-19.5 -46.5t-46.5 -19.5z" />
    <glyph glyph-name="cedilla" unicode="&#xb8;" horiz-adv-x="186" 
d="M96 -244q-30 0 -54 15.5t-37 39.5q-3 8 4 12l32 16q9 4 12 -4q11 -27 40 -27q18 0 30.5 12.5t13.5 30.5q1 32 -42 45l-53 17q-8 3 -4 12l41 75h63l-40 -61q46 -13 69 -32.5t23 -52.5q0 -43 -29.5 -70.5t-68.5 -27.5z" />
    <glyph glyph-name="ordmasculine" unicode="&#xba;" horiz-adv-x="389" 
d="M195 349q-74 0 -121 51t-47 126q0 74 47 125t121 51q73 0 120 -51t47 -125q0 -75 -47 -126t-120 -51zM195 405q50 0 74.5 34t24.5 87q0 52 -24.5 86t-74.5 34q-51 0 -75.5 -34t-24.5 -86q0 -53 24.5 -87t75.5 -34z" />
    <glyph glyph-name="guillemotright" unicode="&#xbb;" horiz-adv-x="522" 
d="M76 119q-4 -4 -7 -2.5t-3 7.5v72q0 4 4 10l88 94l-88 93q-4 6 -4 10v71q0 5 3 6.5t7 -2.5l175 -172q4 -6 0 -13zM276 119q-4 -4 -7 -2.5t-3 7.5v72q0 4 4 10l88 94l-88 93q-4 6 -4 10v71q0 5 3 6.5t7 -2.5l175 -172q5 -7 0 -13z" />
    <glyph glyph-name="questiondown" unicode="&#xbf;" horiz-adv-x="449" 
d="M287 512q8 0 8 -9v-90q0 -8 -8 -8h-89q-9 0 -9 8v90q0 9 9 9h89zM274 319q9 0 9 -9v-94q0 -33 -13.5 -57.5t-25.5 -33.5t-40 -26q-27 -15 -39 -23.5t-25.5 -31t-13.5 -53.5q0 -49 32.5 -75.5t83.5 -26.5q48 0 81 27t37 72q2 9 10 9h64q9 0 9 -9q-5 -78 -59 -127t-138 -49
q-87 0 -144 46t-57 133q0 25 6 46t11 33.5t20.5 26.5t21 18.5t27 17t23.5 13.5q25 16 37.5 31t12.5 40v93q0 9 9 9h61z" />
    <glyph glyph-name="Agrave" unicode="&#xc0;" horiz-adv-x="599" 
d="M258 754l-124 103q-3 3 -3.5 5.5t1.5 4t6 1.5h88q6 0 11 -5l93 -103q4 -4 2.5 -7t-6.5 -3h-58q-6 0 -10 4zM592 13q2 -13 -10 -13h-82q-6 0 -8 6l-47 150h-290l-47 -150q-2 -6 -8 -6h-82q-5 0 -8 4t-2 9l226 672q2 5 8 5h116q6 0 8 -5zM180 234h240l-119 379h-2z" />
    <glyph glyph-name="Aacute" unicode="&#xc1;" horiz-adv-x="599" 
d="M281 750q-6 0 -7.5 3t2.5 8l93 102q4 5 11 5h87q4 0 6 -1.5t1.5 -4t-3.5 -5.5l-131 -103q-5 -4 -11 -4h-48zM592 13q2 -13 -10 -13h-82q-6 0 -8 6l-47 150h-290l-47 -150q-2 -6 -8 -6h-82q-5 0 -8 4t-2 9l226 672q2 5 8 5h116q6 0 8 -5zM180 234h240l-119 379h-2z" />
    <glyph glyph-name="Acircumflex" unicode="&#xc2;" horiz-adv-x="599" 
d="M174 737q-13 0 -4 11l102 108q3 5 10 5h36q6 0 11 -5l102 -108q9 -11 -4 -11h-54q-6 0 -11 5l-56 62q-5 8 -12 0l-55 -62q-3 -5 -10 -5h-55zM592 13q2 -13 -10 -13h-82q-6 0 -8 6l-47 150h-290l-47 -150q-2 -6 -8 -6h-82q-5 0 -8 4t-2 9l226 672q2 5 8 5h116q6 0 8 -5z
M180 234h240l-119 379h-2z" />
    <glyph glyph-name="Atilde" unicode="&#xc3;" horiz-adv-x="599" 
d="M134 751q-8 0 -8 9q3 108 94 108q35 0 62 -18t48 -35.5t42 -17.5q43 0 46 62q0 9 9 9h40q9 0 9 -9q-2 -57 -28.5 -86t-70.5 -29q-34 0 -60.5 17.5t-48 35t-42.5 17.5q-42 0 -45 -54q0 -9 -9 -9h-38zM592 13q2 -13 -10 -13h-82q-6 0 -8 6l-47 150h-290l-47 -150
q-2 -6 -8 -6h-82q-5 0 -8 4t-2 9l226 672q2 5 8 5h116q6 0 8 -5zM180 234h240l-119 379h-2z" />
    <glyph glyph-name="Adieresis" unicode="&#xc4;" horiz-adv-x="599" 
d="M184 768q-9 0 -9 8v83q0 9 9 9h69q8 0 8 -9v-83q0 -8 -8 -8h-69zM348 768q-9 0 -9 8v83q0 9 9 9h69q9 0 9 -9v-83q0 -8 -9 -8h-69zM592 13q2 -13 -10 -13h-82q-6 0 -8 6l-47 150h-290l-47 -150q-2 -6 -8 -6h-82q-5 0 -8 4t-2 9l226 672q2 5 8 5h116q6 0 8 -5zM180 234
h240l-119 379h-2z" />
    <glyph glyph-name="Aring" unicode="&#xc5;" horiz-adv-x="599" 
d="M592 13q2 -13 -10 -13h-82q-6 0 -8 6l-47 150h-290l-47 -150q-2 -6 -8 -6h-82q-5 0 -8 4t-2 9l220 655q-32 30 -32 77q0 43 30.5 73t73.5 30t74 -30t31 -73q0 -46 -33 -77zM300 799q-25 0 -39.5 -15t-14.5 -39q0 -21 12 -36t31 -19h22q20 4 32.5 19t12.5 36
q0 23 -16 38.5t-40 15.5zM180 234h240l-119 379h-2z" />
    <glyph glyph-name="AE" unicode="&#xc6;" horiz-adv-x="868" 
d="M808 605h-343v-218h300q9 0 9 -8v-67q0 -9 -9 -9h-300v-216h343q9 0 9 -9v-69q0 -9 -9 -9h-427q-8 0 -8 9v140h-211l-53 -142q-3 -7 -11 -7h-83q-11 0 -7 11l259 672q1 7 10 7h531q9 0 9 -9v-67q0 -9 -9 -9zM193 233h180v376h-41z" />
    <glyph glyph-name="Ccedilla" unicode="&#xc7;" horiz-adv-x="670" 
d="M625 253q9 0 9 -12q-8 -104 -76 -169.5t-163 -78.5l-35 -54q46 -13 69 -32.5t23 -52.5q0 -43 -29.5 -70.5t-68.5 -27.5q-30 0 -54 15.5t-37 39.5q-3 8 4 12l32 16q9 4 12 -4q11 -27 40 -27q18 0 30.5 12.5t13.5 30.5q1 32 -42 45l-53 17q-8 3 -4 12l36 66
q-137 7 -214.5 103.5t-77.5 250.5q0 161 84 258.5t229 97.5q69 0 130.5 -28t104 -87t46.5 -138q0 -10 -9 -10h-71q-7 0 -9 8q-11 79 -62 123.5t-130 44.5q-101 0 -160 -71.5t-59 -193.5q0 -125 59.5 -198.5t161.5 -73.5q73 0 127 47t63 121q2 8 9 8h71z" />
    <glyph glyph-name="Egrave" unicode="&#xc8;" horiz-adv-x="594" 
d="M284 750q-6 0 -10 4l-124 103q-3 3 -3.5 5.5t1.5 4t6 1.5h88q6 0 11 -5l93 -103q4 -4 2.5 -7t-6.5 -3h-58zM100 0q-9 0 -9 9v672q0 9 9 9h434q9 0 9 -9v-66q0 -9 -9 -9h-348v-219h306q9 0 9 -9v-66q0 -9 -9 -9h-306v-219h348q9 0 9 -9v-66q0 -9 -9 -9h-434z" />
    <glyph glyph-name="Eacute" unicode="&#xc9;" horiz-adv-x="594" 
d="M298 750q-6 0 -7.5 3t2.5 8l93 102q4 5 11 5h87q4 0 6 -1.5t1.5 -4t-3.5 -5.5l-131 -103q-5 -4 -11 -4h-48zM100 0q-9 0 -9 9v672q0 9 9 9h434q9 0 9 -9v-66q0 -9 -9 -9h-348v-219h306q9 0 9 -9v-66q0 -9 -9 -9h-306v-219h348q9 0 9 -9v-66q0 -9 -9 -9h-434z" />
    <glyph glyph-name="Ecircumflex" unicode="&#xca;" horiz-adv-x="594" 
d="M191 737q-13 0 -4 11l102 108q3 5 10 5h36q6 0 11 -5l102 -108q9 -11 -4 -11h-54q-6 0 -11 5l-56 62q-5 8 -12 0l-55 -62q-3 -5 -10 -5h-55zM100 0q-9 0 -9 9v672q0 9 9 9h434q9 0 9 -9v-66q0 -9 -9 -9h-348v-219h306q9 0 9 -9v-66q0 -9 -9 -9h-306v-219h348q9 0 9 -9
v-66q0 -9 -9 -9h-434z" />
    <glyph glyph-name="Edieresis" unicode="&#xcb;" horiz-adv-x="594" 
d="M201 768q-9 0 -9 8v83q0 9 9 9h69q8 0 8 -9v-83q0 -8 -8 -8h-69zM365 768q-9 0 -9 8v83q0 9 9 9h69q9 0 9 -9v-83q0 -8 -9 -8h-69zM100 0q-9 0 -9 9v672q0 9 9 9h434q9 0 9 -9v-66q0 -9 -9 -9h-348v-219h306q9 0 9 -9v-66q0 -9 -9 -9h-306v-219h348q9 0 9 -9v-66
q0 -9 -9 -9h-434z" />
    <glyph glyph-name="Igrave" unicode="&#xcc;" horiz-adv-x="277" 
d="M106 750q-6 0 -10 4l-124 103q-3 3 -3.5 5.5t1.5 4t6 1.5h88q6 0 11 -5l93 -103q4 -4 2.5 -7t-6.5 -3h-58zM100 0q-9 0 -9 9v672q0 9 9 9h77q9 0 9 -9v-672q0 -9 -9 -9h-77z" />
    <glyph glyph-name="Iacute" unicode="&#xcd;" horiz-adv-x="277" 
d="M120 750q-6 0 -7.5 3t2.5 8l93 102q4 5 11 5h87q4 0 6 -1.5t1.5 -4t-3.5 -5.5l-131 -103q-5 -4 -11 -4h-48zM100 0q-9 0 -9 9v672q0 9 9 9h77q9 0 9 -9v-672q0 -9 -9 -9h-77z" />
    <glyph glyph-name="Icircumflex" unicode="&#xce;" horiz-adv-x="277" 
d="M13 737q-13 0 -4 11l102 108q3 5 10 5h36q6 0 11 -5l102 -108q9 -11 -4 -11h-54q-6 0 -11 5l-56 62q-5 8 -12 0l-55 -62q-3 -5 -10 -5h-55zM100 0q-9 0 -9 9v672q0 9 9 9h77q9 0 9 -9v-672q0 -9 -9 -9h-77z" />
    <glyph glyph-name="Idieresis" unicode="&#xcf;" horiz-adv-x="277" 
d="M22 768q-9 0 -9 8v83q0 9 9 9h69q8 0 8 -9v-83q0 -8 -8 -8h-69zM186 768q-9 0 -9 8v83q0 9 9 9h69q9 0 9 -9v-83q0 -8 -9 -8h-69zM100 0q-9 0 -9 9v672q0 9 9 9h77q9 0 9 -9v-672q0 -9 -9 -9h-77z" />
    <glyph glyph-name="Eth" unicode="&#xd0;" horiz-adv-x="658" 
d="M89 0q-9 0 -9 9v305h-48q-9 0 -9 8v52q0 8 9 8h48v299q0 9 9 9h175q171 0 262.5 -90t91.5 -260q0 -163 -92.5 -251.5t-262.5 -88.5h-174zM173 85h78q125 0 199 64t74 196q0 261 -262 261h-89v-224h167q9 0 9 -8v-52q0 -8 -9 -8h-167v-229z" />
    <glyph glyph-name="Ntilde" unicode="&#xd1;" horiz-adv-x="734" 
d="M201 751q-8 0 -8 9q3 108 94 108q35 0 62 -18t48 -35.5t42 -17.5q43 0 46 62q0 9 9 9h40q9 0 9 -9q-2 -57 -28.5 -86t-70.5 -29q-34 0 -60.5 17.5t-48 35t-42.5 17.5q-42 0 -45 -54q0 -9 -9 -9h-38zM100 0q-9 0 -9 9v672q0 9 9 9h106q5 0 11 -6l326 -562h5v559q0 9 9 9
h78q8 0 8 -9v-672q0 -9 -8 -9h-109q-7 0 -11 6l-325 566h-4v-563q0 -9 -9 -9h-77z" />
    <glyph glyph-name="Ograve" unicode="&#xd2;" horiz-adv-x="712" 
d="M324 750q-6 0 -10 4l-124 103q-3 3 -3.5 5.5t1.5 4t6 1.5h88q6 0 11 -5l93 -103q4 -4 2.5 -7t-6.5 -3h-58zM356 -10q-146 0 -231 96t-85 259t85 259t231 96t231 -96t85 -259t-85 -259t-231 -96zM356 76q101 0 160.5 71.5t59.5 197.5q0 127 -59 198t-161 71
q-101 0 -160 -71t-59 -198q0 -126 59 -197.5t160 -71.5z" />
    <glyph glyph-name="Oacute" unicode="&#xd3;" horiz-adv-x="712" 
d="M337 750q-6 0 -7.5 3t2.5 8l93 102q4 5 11 5h87q4 0 6 -1.5t1.5 -4t-3.5 -5.5l-131 -103q-5 -4 -11 -4h-48zM356 -10q-146 0 -231 96t-85 259t85 259t231 96t231 -96t85 -259t-85 -259t-231 -96zM356 76q101 0 160.5 71.5t59.5 197.5q0 127 -59 198t-161 71
q-101 0 -160 -71t-59 -198q0 -126 59 -197.5t160 -71.5z" />
    <glyph glyph-name="Ocircumflex" unicode="&#xd4;" horiz-adv-x="712" 
d="M230 737q-13 0 -4 11l102 108q3 5 10 5h36q6 0 11 -5l102 -108q9 -11 -4 -11h-54q-6 0 -11 5l-56 62q-4 8 -12 0l-55 -62q-3 -5 -10 -5h-55zM356 -10q-146 0 -231 96t-85 259t85 259t231 96t231 -96t85 -259t-85 -259t-231 -96zM356 76q101 0 160.5 71.5t59.5 197.5
q0 127 -59 198t-161 71q-101 0 -160 -71t-59 -198q0 -126 59 -197.5t160 -71.5z" />
    <glyph glyph-name="Otilde" unicode="&#xd5;" horiz-adv-x="712" 
d="M190 751q-8 0 -8 9q3 108 94 108q35 0 62 -18t48 -35.5t42 -17.5q43 0 46 62q0 9 9 9h40q9 0 9 -9q-2 -57 -28.5 -86t-70.5 -29q-34 0 -60.5 17.5t-48 35t-42.5 17.5q-42 0 -45 -54q0 -9 -9 -9h-38zM356 -10q-146 0 -231 96t-85 259t85 259t231 96t231 -96t85 -259
t-85 -259t-231 -96zM356 76q101 0 160.5 71.5t59.5 197.5q0 127 -59 198t-161 71q-101 0 -160 -71t-59 -198q0 -126 59 -197.5t160 -71.5z" />
    <glyph glyph-name="Odieresis" unicode="&#xd6;" horiz-adv-x="712" 
d="M240 768q-9 0 -9 8v83q0 9 9 9h69q8 0 8 -9v-83q0 -8 -8 -8h-69zM404 768q-9 0 -9 8v83q0 9 9 9h69q9 0 9 -9v-83q0 -8 -9 -8h-69zM356 -10q-146 0 -231 96t-85 259t85 259t231 96t231 -96t85 -259t-85 -259t-231 -96zM356 76q101 0 160.5 71.5t59.5 197.5q0 127 -59 198
t-161 71q-101 0 -160 -71t-59 -198q0 -126 59 -197.5t160 -71.5z" />
    <glyph glyph-name="multiply" unicode="&#xd7;" horiz-adv-x="480" 
d="M92 107q-7 -7 -12 0l-38 38q-6 7 0 13l147 147l-146 147q-7 5 0 12l37 38q6 5 13 0l147 -146l148 147q5 7 12 0l38 -38q5 -7 0 -13l-148 -147l147 -147q6 -6 0 -12l-38 -37q-6 -6 -13 -1l-147 147z" />
    <glyph glyph-name="Oslash" unicode="&#xd8;" horiz-adv-x="712" 
d="M616 565q56 -90 56 -220q0 -163 -85 -259t-231 -96q-141 0 -226 90l-44 -44q-5 -7 -12 0l-27 28q-7 6 0 13l49 49q-56 89 -56 219q0 163 85 259t231 96q139 0 225 -89l43 43q6 6 13 0l28 -27q6 -6 0 -13zM137 345q0 -86 29 -149l349 349q-58 69 -159 69t-160 -71
t-59 -198zM356 76q101 0 160.5 71.5t59.5 197.5q0 89 -30 151l-349 -349q59 -71 159 -71z" />
    <glyph glyph-name="Ugrave" unicode="&#xd9;" horiz-adv-x="663" 
d="M298 750q-6 0 -10 4l-124 103q-3 3 -3.5 5.5t1.5 4t6 1.5h88q6 0 11 -5l93 -103q4 -4 2.5 -7t-6.5 -3h-58zM331 -10q-119 0 -184 67.5t-65 188.5v435q0 9 8 9h78q9 0 9 -9v-439q0 -77 41 -121t113 -44t113.5 44t41.5 121v439q0 9 8 9h78q9 0 9 -9v-430q0 -123 -65.5 -192
t-184.5 -69z" />
    <glyph glyph-name="Uacute" unicode="&#xda;" horiz-adv-x="663" 
d="M312 750q-6 0 -7.5 3t2.5 8l93 102q4 5 11 5h87q4 0 6 -1.5t1.5 -4t-3.5 -5.5l-131 -103q-5 -4 -11 -4h-48zM331 -10q-119 0 -184 67.5t-65 188.5v435q0 9 8 9h78q9 0 9 -9v-439q0 -77 41 -121t113 -44t113.5 44t41.5 121v439q0 9 8 9h78q9 0 9 -9v-430
q0 -123 -65.5 -192t-184.5 -69z" />
    <glyph glyph-name="Ucircumflex" unicode="&#xdb;" horiz-adv-x="663" 
d="M205 737q-13 0 -4 11l102 108q3 5 10 5h36q6 0 11 -5l102 -108q9 -11 -4 -11h-54q-6 0 -11 5l-56 62q-5 8 -12 0l-55 -62q-3 -5 -10 -5h-55zM331 -10q-119 0 -184 67.5t-65 188.5v435q0 9 8 9h78q9 0 9 -9v-439q0 -77 41 -121t113 -44t113.5 44t41.5 121v439q0 9 8 9h78
q9 0 9 -9v-430q0 -123 -65.5 -192t-184.5 -69z" />
    <glyph glyph-name="Udieresis" unicode="&#xdc;" horiz-adv-x="663" 
d="M215 768q-9 0 -9 8v83q0 9 9 9h69q8 0 8 -9v-83q0 -8 -8 -8h-69zM379 768q-9 0 -9 8v83q0 9 9 9h69q9 0 9 -9v-83q0 -8 -9 -8h-69zM331 -10q-119 0 -184 67.5t-65 188.5v435q0 9 8 9h78q9 0 9 -9v-439q0 -77 41 -121t113 -44t113.5 44t41.5 121v439q0 9 8 9h78q9 0 9 -9
v-430q0 -123 -65.5 -192t-184.5 -69z" />
    <glyph glyph-name="Yacute" unicode="&#xdd;" horiz-adv-x="660" 
d="M311 750q-6 0 -7.5 3t2.5 8l93 102q4 5 11 5h87q4 0 6 -1.5t1.5 -4t-3.5 -5.5l-131 -103q-5 -4 -11 -4h-48zM290 0q-8 0 -8 9v261l-272 409q-7 11 6 11h90q8 0 11 -5l213 -329l213 329q4 5 11 5h91q11 0 6 -11l-274 -409v-261q0 -9 -9 -9h-78z" />
    <glyph glyph-name="Thorn" unicode="&#xde;" horiz-adv-x="588" 
d="M108 0q-17 0 -17 18v654q0 18 17 18h63q18 0 18 -18v-75h150q102 0 162.5 -52t60.5 -145t-60 -144t-163 -51h-150v-187q0 -18 -18 -18h-63zM189 289h137q138 0 138 110q0 54 -35.5 83.5t-102.5 29.5h-137v-223z" />
    <glyph glyph-name="germandbls" unicode="&#xdf;" horiz-adv-x="557" 
d="M348 -9q-33 0 -85 13q-7 4 -7 11v74q0 12 10 7q39 -19 80 -19q34 0 55.5 20.5t21.5 53.5q0 27 -14.5 48.5t-34.5 37.5t-40.5 33t-35 42.5t-14.5 58.5q0 37 16 61t34.5 34t34.5 28t16 44q0 37 -27 59.5t-74 22.5q-55 0 -85.5 -30.5t-30.5 -80.5v-500q0 -9 -8 -9h-76
q-9 0 -9 9v501q0 88 57 139t143 51q85 0 145.5 -44.5t60.5 -115.5q0 -35 -17 -60.5t-37 -37t-37 -29.5t-17 -40q0 -21 15 -39t37 -33.5t44 -34t37 -48t15 -66.5q0 -71 -49 -116t-124 -45z" />
    <glyph glyph-name="agrave" unicode="&#xe0;" horiz-adv-x="531" 
d="M231 572q-6 0 -10 4l-124 103q-3 3 -3.5 5.5t1.5 4t6 1.5h88q6 0 11 -5l93 -103q4 -4 2.5 -7t-6.5 -3h-58zM209 -11q-76 0 -121 39.5t-45 111.5q0 94 92 134q38 16 118.5 28.5t102.5 21.5q28 13 28 33q0 43 -30.5 66t-87.5 23q-123 0 -131 -82q-1 -9 -9 -9h-67q-9 0 -9 9
q3 79 65 118.5t147 39.5q90 0 148 -44t58 -131v-338q0 -9 -9 -9h-66q-9 0 -9 9v61q-69 -81 -175 -81zM226 64q91 0 151 91q7 11 7 25v93q-43 -21 -110 -32t-92 -21q-55 -22 -55 -76q0 -80 99 -80z" />
    <glyph glyph-name="aacute" unicode="&#xe1;" horiz-adv-x="531" 
d="M245 572q-6 0 -7.5 3t2.5 8l93 102q4 5 11 5h87q4 0 6 -1.5t1.5 -4t-3.5 -5.5l-131 -103q-5 -4 -11 -4h-48zM209 -11q-76 0 -121 39.5t-45 111.5q0 94 92 134q38 16 118.5 28.5t102.5 21.5q28 13 28 33q0 43 -30.5 66t-87.5 23q-123 0 -131 -82q-1 -9 -9 -9h-67
q-9 0 -9 9q3 79 65 118.5t147 39.5q90 0 148 -44t58 -131v-338q0 -9 -9 -9h-66q-9 0 -9 9v61q-69 -81 -175 -81zM226 64q91 0 151 91q7 11 7 25v93q-43 -21 -110 -32t-92 -21q-55 -22 -55 -76q0 -80 99 -80z" />
    <glyph glyph-name="acircumflex" unicode="&#xe2;" horiz-adv-x="531" 
d="M138 559q-13 0 -4 11l102 108q3 5 10 5h36q6 0 11 -5l102 -108q9 -11 -4 -11h-54q-6 0 -11 5l-56 62q-5 7 -12 0l-55 -62q-3 -5 -10 -5h-55zM209 -11q-76 0 -121 39.5t-45 111.5q0 94 92 134q38 16 118.5 28.5t102.5 21.5q28 13 28 33q0 43 -30.5 66t-87.5 23
q-123 0 -131 -82q-1 -9 -9 -9h-67q-9 0 -9 9q3 79 65 118.5t147 39.5q90 0 148 -44t58 -131v-338q0 -9 -9 -9h-66q-9 0 -9 9v61q-69 -81 -175 -81zM226 64q91 0 151 91q7 11 7 25v93q-43 -21 -110 -32t-92 -21q-55 -22 -55 -76q0 -80 99 -80z" />
    <glyph glyph-name="atilde" unicode="&#xe3;" horiz-adv-x="531" 
d="M98 573q-8 0 -8 9q3 108 94 108q35 0 62 -18t48 -35.5t42 -17.5q43 0 46 62q0 9 9 9h40q9 0 9 -9q-2 -57 -28.5 -86t-70.5 -29q-34 0 -60.5 17.5t-48 35t-42.5 17.5q-42 0 -45 -54q0 -9 -9 -9h-38zM209 -11q-76 0 -121 39.5t-45 111.5q0 94 92 134q38 16 118.5 28.5
t102.5 21.5q28 13 28 33q0 43 -30.5 66t-87.5 23q-123 0 -131 -82q-1 -9 -9 -9h-67q-9 0 -9 9q3 79 65 118.5t147 39.5q90 0 148 -44t58 -131v-338q0 -9 -9 -9h-66q-9 0 -9 9v61q-69 -81 -175 -81zM226 64q91 0 151 91q7 11 7 25v93q-43 -21 -110 -32t-92 -21
q-55 -22 -55 -76q0 -80 99 -80z" />
    <glyph glyph-name="adieresis" unicode="&#xe4;" horiz-adv-x="531" 
d="M148 590q-9 0 -9 8v83q0 9 9 9h69q8 0 8 -9v-83q0 -8 -8 -8h-69zM312 590q-9 0 -9 8v83q0 9 9 9h69q9 0 9 -9v-83q0 -8 -9 -8h-69zM209 -11q-76 0 -121 39.5t-45 111.5q0 94 92 134q38 16 118.5 28.5t102.5 21.5q28 13 28 33q0 43 -30.5 66t-87.5 23q-123 0 -131 -82
q-1 -9 -9 -9h-67q-9 0 -9 9q3 79 65 118.5t147 39.5q90 0 148 -44t58 -131v-338q0 -9 -9 -9h-66q-9 0 -9 9v61q-69 -81 -175 -81zM226 64q91 0 151 91q7 11 7 25v93q-43 -21 -110 -32t-92 -21q-55 -22 -55 -76q0 -80 99 -80z" />
    <glyph glyph-name="aring" unicode="&#xe5;" horiz-adv-x="531" 
d="M264 552q-42 0 -70.5 29.5t-28.5 71.5q0 41 28.5 70t70.5 29q41 0 70.5 -28.5t29.5 -70.5t-29.5 -71.5t-70.5 -29.5zM264 600q22 0 37.5 15t15.5 38q0 22 -15 37t-38 15t-37.5 -14.5t-14.5 -37.5q0 -24 15 -38.5t37 -14.5zM209 -11q-76 0 -121 39.5t-45 111.5
q0 94 92 134q38 16 118.5 28.5t102.5 21.5q28 13 28 33q0 43 -30.5 66t-87.5 23q-123 0 -131 -82q-1 -9 -9 -9h-67q-9 0 -9 9q3 79 65 118.5t147 39.5q90 0 148 -44t58 -131v-338q0 -9 -9 -9h-66q-9 0 -9 9v61q-69 -81 -175 -81zM226 64q91 0 151 91q7 11 7 25v93
q-43 -21 -110 -32t-92 -21q-55 -22 -55 -76q0 -80 99 -80z" />
    <glyph glyph-name="ae" unicode="&#xe6;" horiz-adv-x="887" 
d="M620 522q60 0 104.5 -22.5t69.5 -60.5t36.5 -82t11.5 -94q0 -19 -1 -26q-1 -9 -11 -9h-357q5 -76 43 -119t106 -43q110 0 129 98q3 9 11 9h60q11 0 9 -13q-15 -83 -71 -126.5t-133 -43.5q-138 0 -203 108q-99 -109 -217 -109q-73 0 -118.5 40t-45.5 107q0 93 105 143
q85 38 212 35q11 1 18 7.5t6 16.5q-3 113 -116 113q-125 0 -133 -90q0 -9 -9 -9h-67q-9 0 -9 9q5 80 66.5 120.5t144.5 40.5q128 0 181 -80q62 80 178 80zM618 445q-68 0 -104.5 -40.5t-40.5 -107.5h282q-1 69 -35 108.5t-102 39.5zM235 62q85 2 162 102q-11 38 -12 79l-1 4
q-110 12 -184 -26q-60 -30 -60 -80q0 -36 27 -57.5t68 -21.5z" />
    <glyph glyph-name="ccedilla" unicode="&#xe7;" horiz-adv-x="551" 
d="M508 193q9 0 9 -10q-9 -82 -61 -132t-132 -60l-34 -52q46 -13 69 -32.5t23 -52.5q0 -43 -29.5 -70.5t-68.5 -27.5q-30 0 -54 15.5t-37 39.5q-3 8 4 12l32 16q9 4 12 -4q11 -27 40 -27q18 0 30.5 12.5t13.5 30.5q1 32 -42 45l-53 17q-8 3 -4 12l36 65q-100 9 -160 77.5
t-60 186.5q0 128 67.5 198t177.5 70q94 0 157.5 -52t72.5 -145q2 -10 -8 -10h-70q-9 0 -10 9q-7 57 -44.5 87.5t-96.5 30.5q-72 0 -113.5 -47t-41.5 -141q0 -92 41.5 -138.5t113.5 -46.5q58 0 95.5 29.5t44.5 85.5q2 9 10 9h70z" />
    <glyph glyph-name="egrave" unicode="&#xe8;" horiz-adv-x="536" 
d="M232 576l-124 103q-3 3 -3.5 5.5t1.5 4t6 1.5h88q6 0 11 -5l93 -103q4 -4 2.5 -7t-6.5 -3h-58q-6 0 -10 4zM277 522q60 0 104.5 -22.5t69.5 -60.5t36.5 -82t11.5 -94q0 -19 -1 -26q-2 -9 -11 -9h-357q5 -76 43 -119t106 -43q110 0 129 98q3 9 11 9h60q11 0 9 -13
q-15 -83 -71 -126.5t-133 -43.5q-116 0 -179 75.5t-63 189.5t59.5 190.5t175.5 76.5zM275 445q-68 0 -104.5 -40.5t-40.5 -107.5h282q-1 69 -35 108.5t-102 39.5z" />
    <glyph glyph-name="eacute" unicode="&#xe9;" horiz-adv-x="536" 
d="M256 572q-6 0 -7.5 3t2.5 8l93 102q4 5 11 5h87q4 0 6 -1.5t1.5 -4t-3.5 -5.5l-131 -103q-5 -4 -11 -4h-48zM277 522q60 0 104.5 -22.5t69.5 -60.5t36.5 -82t11.5 -94q0 -19 -1 -26q-2 -9 -11 -9h-357q5 -76 43 -119t106 -43q110 0 129 98q3 9 11 9h60q11 0 9 -13
q-15 -83 -71 -126.5t-133 -43.5q-116 0 -179 75.5t-63 189.5t59.5 190.5t175.5 76.5zM275 445q-68 0 -104.5 -40.5t-40.5 -107.5h282q-1 69 -35 108.5t-102 39.5z" />
    <glyph glyph-name="ecircumflex" unicode="&#xea;" horiz-adv-x="536" 
d="M149 559q-13 0 -4 11l102 108q3 5 10 5h36q6 0 11 -5l102 -108q9 -11 -4 -11h-54q-6 0 -11 5l-56 62q-5 7 -12 0l-55 -62q-3 -5 -10 -5h-55zM277 522q60 0 104.5 -22.5t69.5 -60.5t36.5 -82t11.5 -94q0 -19 -1 -26q-2 -9 -11 -9h-357q5 -76 43 -119t106 -43q110 0 129 98
q3 9 11 9h60q11 0 9 -13q-15 -83 -71 -126.5t-133 -43.5q-116 0 -179 75.5t-63 189.5t59.5 190.5t175.5 76.5zM275 445q-68 0 -104.5 -40.5t-40.5 -107.5h282q-1 69 -35 108.5t-102 39.5z" />
    <glyph glyph-name="edieresis" unicode="&#xeb;" horiz-adv-x="536" 
d="M158 590q-9 0 -9 8v83q0 9 9 9h69q8 0 8 -9v-83q0 -8 -8 -8h-69zM322 590q-9 0 -9 8v83q0 9 9 9h69q9 0 9 -9v-83q0 -8 -9 -8h-69zM277 522q60 0 104.5 -22.5t69.5 -60.5t36.5 -82t11.5 -94q0 -19 -1 -26q-2 -9 -11 -9h-357q5 -76 43 -119t106 -43q110 0 129 98q3 9 11 9
h60q11 0 9 -13q-15 -83 -71 -126.5t-133 -43.5q-116 0 -179 75.5t-63 189.5t59.5 190.5t175.5 76.5zM275 445q-68 0 -104.5 -40.5t-40.5 -107.5h282q-1 69 -35 108.5t-102 39.5z" />
    <glyph glyph-name="igrave" unicode="&#xec;" horiz-adv-x="250" 
d="M91 572q-6 0 -10 4l-124 103q-3 3 -3.5 5.5t1.5 4t6 1.5h88q6 0 11 -5l93 -103q4 -4 2.5 -7t-6.5 -3h-58zM80 0v512h90v-512h-90z" />
    <glyph glyph-name="iacute" unicode="&#xed;" horiz-adv-x="250" 
d="M105 572q-6 0 -7.5 3t2.5 8l93 102q4 5 11 5h87q4 0 6 -1.5t1.5 -4t-3.5 -5.5l-131 -103q-5 -4 -11 -4h-48zM80 0v512h90v-512h-90z" />
    <glyph glyph-name="icircumflex" unicode="&#xee;" horiz-adv-x="250" 
d="M-2 559q-13 0 -4 11l102 108q3 5 10 5h36q6 0 11 -5l102 -108q9 -11 -4 -11h-54q-6 0 -11 5l-56 62q-4 7 -12 0l-55 -62q-3 -5 -10 -5h-55zM80 0v512h90v-512h-90z" />
    <glyph glyph-name="idieresis" unicode="&#xef;" horiz-adv-x="250" 
d="M8 590q-9 0 -9 8v83q0 9 9 9h69q8 0 8 -9v-83q0 -8 -8 -8h-69zM172 590q-9 0 -9 8v83q0 9 9 9h69q9 0 9 -9v-83q0 -8 -9 -8h-69zM80 0v512h90v-512h-90z" />
    <glyph glyph-name="eth" unicode="&#xf0;" horiz-adv-x="554" 
d="M303 681q114 -67 162.5 -168.5t48.5 -260.5q0 -108 -64 -184t-173 -76q-110 0 -174.5 76t-64.5 184t63.5 184t170.5 76q41 0 77.5 -16t52.5 -40q-28 101 -141 167l-44 -59q-5 -7 -12 -2l-24 18q-7 6 -2 12l40 54q-61 29 -72 34q-9 3 -4 11l28 41q3 8 11 5q50 -19 80 -34
l40 53q5 6 12 2l21 -17q9 -4 3 -12zM277 73q70 0 106.5 51t36.5 128q0 78 -36.5 128.5t-106.5 50.5q-71 0 -107.5 -51t-36.5 -128t36.5 -128t107.5 -51z" />
    <glyph glyph-name="ntilde" unicode="&#xf1;" horiz-adv-x="556" 
d="M101 575q-8 0 -8 9q3 108 94 108q35 0 62 -18t48 -35.5t42 -17.5q43 0 46 62q0 9 9 9h40q9 0 9 -9q-2 -57 -28.5 -86t-70.5 -29q-34 0 -60.5 17.5t-48 35t-42.5 17.5q-42 0 -45 -54q0 -9 -9 -9h-38zM77 0q-9 0 -9 9v494q0 9 9 9h73q9 0 9 -9v-59q50 78 155 78
q79 0 125.5 -51t46.5 -137v-325q0 -9 -9 -9h-73q-9 0 -9 9v308q0 125 -101 125q-60 0 -97.5 -39.5t-37.5 -105.5v-288q0 -9 -9 -9h-73z" />
    <glyph glyph-name="ograve" unicode="&#xf2;" horiz-adv-x="575" 
d="M254 572q-6 0 -10 4l-124 103q-3 3 -3.5 5.5t1.5 4t6 1.5h88q6 0 11 -5l93 -103q4 -4 2.5 -7t-6.5 -3h-58zM287 -11q-110 0 -177.5 69.5t-67.5 195.5q0 128 67.5 198t177.5 70q109 0 177 -70t68 -198q0 -126 -68 -195.5t-177 -69.5zM288 69q73 0 114 46.5t41 138.5
q0 94 -41 141t-114 47q-72 0 -113.5 -47t-41.5 -141q0 -92 41.5 -138.5t113.5 -46.5z" />
    <glyph glyph-name="oacute" unicode="&#xf3;" horiz-adv-x="575" 
d="M267 572q-6 0 -7.5 3t2.5 8l93 102q4 5 11 5h87q4 0 6 -1.5t1.5 -4t-3.5 -5.5l-131 -103q-5 -4 -11 -4h-48zM287 -11q-110 0 -177.5 69.5t-67.5 195.5q0 128 67.5 198t177.5 70q109 0 177 -70t68 -198q0 -126 -68 -195.5t-177 -69.5zM288 69q73 0 114 46.5t41 138.5
q0 94 -41 141t-114 47q-72 0 -113.5 -47t-41.5 -141q0 -92 41.5 -138.5t113.5 -46.5z" />
    <glyph glyph-name="ocircumflex" unicode="&#xf4;" horiz-adv-x="575" 
d="M161 559q-13 0 -4 11l102 108q3 5 10 5h36q6 0 11 -5l102 -108q9 -11 -4 -11h-54q-6 0 -11 5l-56 62q-5 7 -12 0l-55 -62q-3 -5 -10 -5h-55zM287 -11q-110 0 -177.5 69.5t-67.5 195.5q0 128 67.5 198t177.5 70q109 0 177 -70t68 -198q0 -126 -68 -195.5t-177 -69.5z
M288 69q73 0 114 46.5t41 138.5q0 94 -41 141t-114 47q-72 0 -113.5 -47t-41.5 -141q0 -92 41.5 -138.5t113.5 -46.5z" />
    <glyph glyph-name="otilde" unicode="&#xf5;" horiz-adv-x="575" 
d="M120 573q-8 0 -8 9q3 108 94 108q35 0 62 -18t48 -35.5t42 -17.5q43 0 46 62q0 9 9 9h40q9 0 9 -9q-2 -57 -28.5 -86t-70.5 -29q-34 0 -60.5 17.5t-48 35t-42.5 17.5q-42 0 -45 -54q0 -9 -9 -9h-38zM287 -11q-110 0 -177.5 69.5t-67.5 195.5q0 128 67.5 198t177.5 70
q109 0 177 -70t68 -198q0 -126 -68 -195.5t-177 -69.5zM288 69q73 0 114 46.5t41 138.5q0 94 -41 141t-114 47q-72 0 -113.5 -47t-41.5 -141q0 -92 41.5 -138.5t113.5 -46.5z" />
    <glyph glyph-name="odieresis" unicode="&#xf6;" horiz-adv-x="575" 
d="M170 590q-9 0 -9 8v83q0 9 9 9h69q8 0 8 -9v-83q0 -8 -8 -8h-69zM334 590q-9 0 -9 8v83q0 9 9 9h69q9 0 9 -9v-83q0 -8 -9 -8h-69zM287 -11q-110 0 -177.5 69.5t-67.5 195.5q0 128 67.5 198t177.5 70q109 0 177 -70t68 -198q0 -126 -68 -195.5t-177 -69.5zM288 69
q73 0 114 46.5t41 138.5q0 94 -41 141t-114 47q-72 0 -113.5 -47t-41.5 -141q0 -92 41.5 -138.5t113.5 -46.5z" />
    <glyph glyph-name="divide" unicode="&#xf7;" horiz-adv-x="670" 
d="M289 410q-9 0 -9 9v90q0 9 9 9h91q9 0 9 -9v-90q0 -9 -9 -9h-91zM82 227q-9 0 -9 8v51q0 9 9 9h506q9 0 9 -9v-51q0 -8 -9 -8h-506zM289 -4q-9 0 -9 9v90q0 9 9 9h91q9 0 9 -9v-90q0 -9 -9 -9h-91z" />
    <glyph glyph-name="oslash" unicode="&#xf8;" horiz-adv-x="575" 
d="M541 487q5 -5 0 -11l-54 -54q45 -65 45 -168q0 -126 -68 -195.5t-177 -69.5q-105 0 -170 63l-51 -51q-5 -5 -10 0l-23 24q-5 5 0 10l53 53q-44 68 -44 166q0 128 67.5 198t177.5 70q104 0 170 -63l51 50q4 6 10 0zM133 254q0 -60 18 -101l247 246q-40 43 -110 43
q-72 0 -113.5 -47t-41.5 -141zM443 254q0 61 -19 105l-247 -247q40 -43 111 -43q73 0 114 46.5t41 138.5z" />
    <glyph glyph-name="ugrave" unicode="&#xf9;" horiz-adv-x="556" 
d="M246 572q-6 0 -10 4l-124 103q-3 3 -3.5 5.5t1.5 4t6 1.5h88q6 0 11 -5l93 -103q4 -4 2.5 -7t-6.5 -3h-58zM245 -9q-81 0 -128 51.5t-47 136.5v324q0 9 9 9h73q9 0 9 -9v-308q0 -121 103 -121q60 0 96.5 39t36.5 101v289q0 9 9 9h74q8 0 8 -9v-494q0 -9 -8 -9h-74
q-9 0 -9 9v60q-56 -78 -152 -78z" />
    <glyph glyph-name="uacute" unicode="&#xfa;" horiz-adv-x="556" 
d="M259 572q-6 0 -7.5 3t2.5 8l93 102q4 5 11 5h87q4 0 6 -1.5t1.5 -4t-3.5 -5.5l-131 -103q-5 -4 -11 -4h-48zM245 -9q-81 0 -128 51.5t-47 136.5v324q0 9 9 9h73q9 0 9 -9v-308q0 -121 103 -121q60 0 96.5 39t36.5 101v289q0 9 9 9h74q8 0 8 -9v-494q0 -9 -8 -9h-74
q-9 0 -9 9v60q-56 -78 -152 -78z" />
    <glyph glyph-name="ucircumflex" unicode="&#xfb;" horiz-adv-x="556" 
d="M152 559q-13 0 -4 11l102 108q3 5 10 5h36q6 0 11 -5l102 -108q9 -11 -4 -11h-54q-6 0 -11 5l-56 62q-4 7 -12 0l-55 -62q-3 -5 -10 -5h-55zM245 -9q-81 0 -128 51.5t-47 136.5v324q0 9 9 9h73q9 0 9 -9v-308q0 -121 103 -121q60 0 96.5 39t36.5 101v289q0 9 9 9h74
q8 0 8 -9v-494q0 -9 -8 -9h-74q-9 0 -9 9v60q-56 -78 -152 -78z" />
    <glyph glyph-name="udieresis" unicode="&#xfc;" horiz-adv-x="556" 
d="M162 590q-9 0 -9 8v83q0 9 9 9h69q8 0 8 -9v-83q0 -8 -8 -8h-69zM326 590q-9 0 -9 8v83q0 9 9 9h69q9 0 9 -9v-83q0 -8 -9 -8h-69zM245 -9q-81 0 -128 51.5t-47 136.5v324q0 9 9 9h73q9 0 9 -9v-308q0 -121 103 -121q60 0 96.5 39t36.5 101v289q0 9 9 9h74q8 0 8 -9v-494
q0 -9 -8 -9h-74q-9 0 -9 9v60q-56 -78 -152 -78z" />
    <glyph glyph-name="yacute" unicode="&#xfd;" horiz-adv-x="490" 
d="M224 572q-6 0 -7.5 3t2.5 8l93 102q4 5 11 5h87q4 0 6 -1.5t1.5 -4t-3.5 -5.5l-131 -103q-5 -4 -11 -4h-48zM39 -178q-9 0 -9 9v59q0 9 9 9q41 0 69.5 8t47 25t27 30.5t20.5 37.5l-191 501q-2 11 7 11h81q8 0 11 -7l135 -399l134 399q4 7 10 7h82q9 0 7 -11l-199 -523
q-35 -93 -92.5 -124t-148.5 -32z" />
    <glyph glyph-name="thorn" unicode="&#xfe;" horiz-adv-x="578" 
d="M77 -178q-9 0 -9 9v850q0 9 9 9h74q9 0 9 -9v-253h4q62 70 160 70t154.5 -71.5t56.5 -182.5t-56.5 -182.5t-154.5 -71.5q-101 0 -161 69h-3v-228q0 -9 -9 -9h-74zM299 67q72 0 110 50t38 129t-38 129t-110 50q-71 0 -108 -50.5t-37 -128.5t37 -128.5t108 -50.5z" />
    <glyph glyph-name="ydieresis" unicode="&#xff;" horiz-adv-x="490" 
d="M127 590q-9 0 -9 8v83q0 9 9 9h69q8 0 8 -9v-83q0 -8 -8 -8h-69zM291 590q-9 0 -9 8v83q0 9 9 9h69q9 0 9 -9v-83q0 -8 -9 -8h-69zM39 -178q-9 0 -9 9v59q0 9 9 9q41 0 69.5 8t47 25t27 30.5t20.5 37.5l-191 501q-2 11 7 11h81q8 0 11 -7l135 -399l134 399q4 7 10 7h82
q9 0 7 -11l-199 -523q-35 -93 -92.5 -124t-148.5 -32z" />
    <glyph glyph-name="dcaron" unicode="&#x10f;" horiz-adv-x="682" 
d="M265 -11q-109 0 -165.5 73.5t-56.5 193.5q0 119 56.5 192.5t165.5 73.5q113 0 172 -83v242q0 9 9 9h73q9 0 9 -9v-672q0 -9 -9 -9h-72q-9 0 -9 9v63q-60 -83 -173 -83zM594 429q-11 0 -8 10l40 137h-35q-9 0 -9 9v96q0 9 9 9h101q8 0 8 -9v-100q0 -2 -2 -10l-59 -134
q-3 -8 -10 -8h-35zM291 69q70 0 110 50t40 137q0 85 -40 135t-110 50q-78 0 -118 -48.5t-40 -136.5q0 -90 40 -138.5t118 -48.5z" />
    <glyph glyph-name="Dcroat" unicode="&#x110;" horiz-adv-x="658" 
d="M89 0q-9 0 -9 9v305h-48q-9 0 -9 8v52q0 8 9 8h48v299q0 9 9 9h175q171 0 262.5 -90t91.5 -260q0 -163 -92.5 -251.5t-262.5 -88.5h-174zM173 85h78q125 0 199 64t74 196q0 261 -262 261h-89v-224h167q9 0 9 -8v-52q0 -8 -9 -8h-167v-229z" />
    <glyph glyph-name="dotlessi" unicode="&#x131;" horiz-adv-x="250" 
d="M80 0v512h90v-512h-90z" />
    <glyph glyph-name="kgreenlandic" unicode="&#x138;" horiz-adv-x="522" 
d="M524 11q4 -5 2 -8t-7 -3h-94q-7 0 -10 5l-183 242l-62 -61v-177q0 -9 -9 -9h-74q-9 0 -9 9v494q0 9 9 9h74q9 0 9 -9v-208l215 212q5 5 11 5h92q4 0 6 -1.5t1.5 -4t-3.5 -5.5l-199 -195z" />
    <glyph glyph-name="Lcaron" unicode="&#x13d;" horiz-adv-x="490" 
d="M376 437q-11 0 -8 10l40 137h-35q-8 0 -8 9v97q0 8 8 8h101q8 0 8 -8v-100q0 -3 -2 -11l-59 -134q-3 -8 -10 -8h-35zM100 0q-9 0 -9 9v672q0 9 9 9h77q9 0 9 -9v-597h286q9 0 9 -9v-66q0 -9 -9 -9h-372z" />
    <glyph glyph-name="lcaron" unicode="&#x13e;" horiz-adv-x="325" 
d="M88 0q-8 0 -8 9v672q0 9 8 9h74q9 0 9 -9v-672q0 -9 -9 -9h-74zM236 429q-10 0 -7 10l40 137h-35q-9 0 -9 9v96q0 9 9 9h100q9 0 9 -9v-100q0 -2 -2 -10l-59 -134q-3 -8 -10 -8h-36z" />
    <glyph glyph-name="Lslash" unicode="&#x141;" horiz-adv-x="490" 
d="M472 84q9 0 9 -9v-66q0 -9 -9 -9h-372q-9 0 -9 9v257l-59 -46q-8 -6 -8 4v68q0 5 4 8l63 50v331q0 9 9 9h77q9 0 9 -9v-255l117 93q3 3 5.5 1.5t2.5 -5.5v-71q0 -5 -4 -9l-121 -95v-256h286z" />
    <glyph glyph-name="lslash" unicode="&#x142;" horiz-adv-x="251" 
d="M248 524q7 5 7 -4v-59q0 -3 -4 -7l-80 -63v-382q0 -9 -9 -9h-74q-8 0 -8 9v311l-57 -45q-2 -3 -4 -2t-2 5v57q0 4 3 7l60 48v291q0 9 8 9h74q9 0 9 -9v-218z" />
    <glyph glyph-name="Eng" unicode="&#x14a;" horiz-adv-x="734" 
d="M635 690q8 0 8 -9v-672q0 -27 -1.5 -43.5t-8 -39t-19.5 -35.5t-38.5 -22.5t-61.5 -9.5h-52q-9 0 -9 9v46q0 8 9 8h26q23 0 37 7t19.5 21.5t6.5 23.5t1 26h-26q-7 0 -11 6l-325 566h-4v-563q0 -9 -9 -9h-77q-9 0 -9 9v672q0 9 9 9h106q5 0 11 -6l326 -562h5v559q0 9 9 9
h78z" />
    <glyph glyph-name="eng" unicode="&#x14b;" horiz-adv-x="556" 
d="M303 -141q-8 0 -8 9v46q0 9 8 9h35q57 0 57 75v309q0 55 -23.5 92t-76.5 37q-57 0 -96.5 -41t-39.5 -100v-286q0 -9 -9 -9h-73q-9 0 -9 9v494q0 9 9 9h72q9 0 9 -9v-71h6q50 88 155 88q85 0 126 -57t41 -143v-324q0 -17 -1 -29t-8.5 -34.5t-21.5 -36.5t-43 -25.5
t-69 -11.5h-40z" />
    <glyph glyph-name="OE" unicode="&#x152;" horiz-adv-x="1090" 
d="M1031 606h-336v-219h296q8 0 8 -9v-66q0 -9 -8 -9h-296v-219h336q8 0 8 -9v-66q0 -9 -8 -9h-420q-9 0 -9 9v95q-86 -114 -246 -114q-146 0 -231 96t-85 259t85 259t231 96q160 0 246 -114v95q0 9 9 9h420q8 0 8 -9v-66q0 -9 -8 -9zM356 76q101 0 160.5 71.5t59.5 197.5
q0 127 -59 198t-161 71q-101 0 -160 -71t-59 -198q0 -126 59 -197.5t160 -71.5z" />
    <glyph glyph-name="oe" unicode="&#x153;" horiz-adv-x="949" 
d="M682 522q60 0 104.5 -22.5t69.5 -60.5t36.5 -82t11.5 -94q0 -19 -1 -26q-1 -9 -11 -9h-357q5 -76 43 -119t106 -43q110 0 129 98q3 9 11 9h60q11 0 9 -13q-15 -83 -71 -126.5t-133 -43.5q-134 0 -199 102q-66 -103 -203 -103q-110 0 -177.5 69.5t-67.5 195.5
q0 128 67.5 198t177.5 70q137 0 202 -102q62 102 193 102zM680 445q-68 0 -104.5 -40.5t-40.5 -107.5h282q-1 69 -35 108.5t-102 39.5zM288 69q73 0 114 46.5t41 138.5q0 94 -41 141t-114 47q-72 0 -113.5 -47t-41.5 -141q0 -92 41.5 -138.5t113.5 -46.5z" />
    <glyph glyph-name="Scaron" unicode="&#x160;" horiz-adv-x="577" 
d="M269 741q-8 0 -11 5l-105 111q-8 11 4 11h55q7 0 10 -5l55 -60q7 -7 13 0l56 60q3 5 10 5h54q13 0 5 -11l-106 -111q-5 -5 -11 -5h-29zM304 -10q-47 0 -90 12t-82 38t-63 73t-26 110q0 8 9 8h81q8 0 8 -8q4 -76 50 -112t115 -36q57 0 92.5 28.5t35.5 77.5q0 23 -10 42.5
t-22 31.5t-38.5 26t-41.5 20.5t-50 19.5q-39 15 -58.5 23t-52.5 26.5t-49.5 36.5t-30 47.5t-13.5 65.5q0 83 59 131.5t156 48.5t160.5 -46.5t67.5 -142.5q0 -9 -9 -9h-78q-9 0 -9 9q-2 56 -37.5 82.5t-94.5 26.5q-54 0 -86 -24.5t-32 -66.5q0 -19 9.5 -36t20 -28t36.5 -24.5
t39.5 -19t47.5 -19.5q101 -40 137 -66q77 -55 77 -144q0 -91 -63 -146.5t-165 -55.5z" />
    <glyph glyph-name="scaron" unicode="&#x161;" horiz-adv-x="487" 
d="M222 563q-8 0 -11 5l-105 111q-8 11 4 11h55q7 0 10 -5l55 -60q6 -7 13 0l56 60q3 5 10 5h54q13 0 5 -11l-106 -111q-5 -5 -11 -5h-29zM267 -11q-108 0 -163 42q-59 43 -63 133q0 9 9 9h67q9 0 9 -9q3 -53 35 -79q35 -25 99 -24q43 0 71 20.5t28 60.5q0 17 -8 30
t-17.5 21t-31.5 16t-34.5 11t-43.5 10q-32 7 -50.5 12t-45.5 16.5t-41 25t-25 35.5t-11 51q0 73 51 112.5t136 39.5q81 0 132 -35q64 -43 67 -123q0 -9 -9 -9h-63q-9 0 -9 9q-3 45 -34 67q-31 20 -83 20q-46 0 -74.5 -19.5t-28.5 -52.5q0 -31 29.5 -45.5t96.5 -30.5
q3 -1 5 -1.5t5 -1t6 -1.5q39 -10 63.5 -18.5t52 -25t40.5 -42.5t13 -62q0 -76 -51 -119t-129 -43z" />
    <glyph glyph-name="tcaron" unicode="&#x165;" horiz-adv-x="351" 
d="M284 568q-11 0 -8 10l40 137h-35q-8 0 -8 9v96q0 9 8 9h101q8 0 8 -9v-100q0 -2 -2 -10l-59 -134q-3 -8 -10 -8h-35zM221 0q-130 0 -130 135v307h-67q-9 0 -9 9v52q0 9 9 9h67v129q0 9 9 9h73q9 0 9 -9v-129h112q8 0 8 -9v-52q0 -9 -8 -9h-112v-286q0 -46 15.5 -64.5
t53.5 -18.5h43q8 0 8 -8v-56q0 -9 -8 -9h-73z" />
    <glyph glyph-name="Ydieresis" unicode="&#x178;" horiz-adv-x="660" 
d="M214 768q-9 0 -9 8v83q0 9 9 9h69q8 0 8 -9v-83q0 -8 -8 -8h-69zM378 768q-9 0 -9 8v83q0 9 9 9h69q9 0 9 -9v-83q0 -8 -9 -8h-69zM290 0q-8 0 -8 9v261l-272 409q-7 11 6 11h90q8 0 11 -5l213 -329l213 329q4 5 11 5h91q11 0 6 -11l-274 -409v-261q0 -9 -9 -9h-78z" />
    <glyph glyph-name="Zcaron" unicode="&#x17d;" horiz-adv-x="576" 
d="M264 746l-105 111q-8 11 4 11h55q7 0 10 -5l55 -60q7 -7 13 0l56 60q3 5 10 5h54q13 0 5 -11l-106 -111q-5 -5 -11 -5h-29q-8 0 -11 5zM559 621q0 -6 -4 -10l-419 -527h414q9 0 9 -9v-66q0 -9 -9 -9h-524q-9 0 -9 9v56q0 6 4 11l419 530h-392q-9 0 -9 9v66q0 9 9 9h502
q9 0 9 -9v-60z" />
    <glyph glyph-name="zcaron" unicode="&#x17e;" horiz-adv-x="458" 
d="M203 568l-105 111q-8 11 4 11h55q7 0 10 -5l55 -60q6 -7 13 0l56 60q3 5 10 5h54q13 0 5 -11l-106 -111q-5 -5 -11 -5h-29q-8 0 -11 5zM434 445q0 -6 -4 -10l-292 -358h284q9 0 9 -9v-59q0 -9 -9 -9h-387q-9 0 -9 9v52q0 6 4 10l297 365h-283q-9 0 -9 9v58q0 9 9 9h381
q9 0 9 -9v-58z" />
    <glyph glyph-name="florin" unicode="&#x192;" horiz-adv-x="474" 
d="M29 -223q-9 0 -9 9v61q0 8 9 8q84 2 120 36t36 113v400h-78q-9 0 -9 8v58q0 9 9 9h78v81q0 67 36 107t104 40q134 0 139 -138q0 -10 -9 -10h-56q-9 0 -9 9q-4 67 -64 67q-62 0 -62 -77v-79h140q9 0 9 -9v-58q0 -8 -9 -8h-140v-400q0 -108 -61.5 -166t-173.5 -61z" />
    <glyph glyph-name="Oslashacute" unicode="&#x1fe;" horiz-adv-x="712" 
d="M337 750q-6 0 -7.5 3t2.5 8l93 102q4 5 11 5h87q4 0 6 -1.5t1.5 -4t-3.5 -5.5l-131 -103q-5 -4 -11 -4h-48zM616 565q56 -90 56 -220q0 -163 -85 -259t-231 -96q-141 0 -226 90l-44 -44q-5 -7 -12 0l-27 28q-7 6 0 13l49 49q-56 89 -56 219q0 163 85 259t231 96
q139 0 225 -89l43 43q6 6 13 0l28 -27q6 -6 0 -13zM137 345q0 -86 29 -149l349 349q-58 69 -159 69t-160 -71t-59 -198zM356 76q101 0 160.5 71.5t59.5 197.5q0 89 -30 151l-349 -349q59 -71 159 -71z" />
    <glyph glyph-name="oslashacute" unicode="&#x1ff;" horiz-adv-x="575" 
d="M267 572q-6 0 -7.5 3t2.5 8l93 102q4 5 11 5h87q4 0 6 -1.5t1.5 -4t-3.5 -5.5l-131 -103q-5 -4 -11 -4h-48zM541 487q5 -5 0 -11l-54 -54q45 -65 45 -168q0 -126 -68 -195.5t-177 -69.5q-105 0 -170 63l-51 -51q-5 -5 -10 0l-23 24q-5 5 0 10l53 53q-44 68 -44 166
q0 128 67.5 198t177.5 70q104 0 170 -63l51 50q4 6 10 0zM133 254q0 -60 18 -101l247 246q-40 43 -110 43q-72 0 -113.5 -47t-41.5 -141zM443 254q0 61 -19 105l-247 -247q40 -43 111 -43q73 0 114 46.5t41 138.5z" />
    <glyph glyph-name="uni0237" unicode="&#x237;" horiz-adv-x="244" 
d="M-12 -178q-9 0 -9 9v57q0 9 9 9q47 3 72 29.5t25 68.5v508q0 9 9 9h73q9 0 9 -9v-500q0 -176 -188 -181z" />
    <glyph glyph-name="circumflex" unicode="&#x2c6;" horiz-adv-x="320" 
d="M34 539q-13 0 -4 11l107 112q5 5 11 5h26q6 0 11 -5l106 -112q9 -11 -4 -11h-54q-6 0 -11 5l-62 69l-61 -69q-3 -5 -10 -5h-55z" />
    <glyph glyph-name="caron" unicode="&#x2c7;" horiz-adv-x="320" 
d="M144 540q-5 0 -11 4l-104 111q-8 11 4 11h55q7 0 10 -5l62 -66l62 66q3 5 10 5h54q13 0 5 -11l-105 -111q-6 -4 -11 -4h-31z" />
    <glyph glyph-name="breve" unicode="&#x2d8;" horiz-adv-x="295" 
d="M148 534q-63 0 -104.5 32.5t-45.5 90.5q0 9 9 9h51q9 0 9 -9q4 -30 26.5 -47.5t54.5 -17.5q33 0 55.5 17.5t25.5 47.5q1 9 9 9h52q9 0 9 -10q-4 -58 -45.5 -90t-105.5 -32z" />
    <glyph glyph-name="dotaccent" unicode="&#x2d9;" horiz-adv-x="121" 
d="M28 568q-9 0 -9 9v80q0 9 9 9h65q8 0 8 -9v-80q0 -9 -8 -9h-65z" />
    <glyph glyph-name="ring" unicode="&#x2da;" horiz-adv-x="193" 
d="M96 528q-42 0 -70.5 29.5t-28.5 71.5q0 41 28.5 70t70.5 29q41 0 70.5 -28.5t29.5 -70.5t-29.5 -71.5t-70.5 -29.5zM96 576q22 0 37.5 15t15.5 38q0 22 -15 37t-38 15t-37.5 -14.5t-14.5 -37.5q0 -24 15 -38.5t37 -14.5z" />
    <glyph glyph-name="ogonek" unicode="&#x2db;" horiz-adv-x="223" 
d="M162 -221q-46 0 -75 26.5t-29 72.5q0 77 83 128l49 -6q-75 -62 -75 -111q0 -27 13.5 -40.5t33.5 -11.5q25 0 46 23q5 7 13 3l34 -23q6 -6 3 -11q-35 -50 -96 -50z" />
    <glyph glyph-name="tilde" unicode="&#x2dc;" horiz-adv-x="346" 
d="M7 529q-8 0 -8 9q3 108 94 108q35 0 62 -18t48 -35.5t42 -17.5q43 0 46 62q0 9 9 9h40q9 0 9 -9q-2 -57 -28.5 -86t-70.5 -29q-34 0 -60.5 17.5t-48 35t-42.5 17.5q-42 0 -45 -54q0 -9 -9 -9h-38z" />
    <glyph glyph-name="hungarumlaut" unicode="&#x2dd;" horiz-adv-x="363" 
d="M6 552q-14 0 -6 11l90 98q2 5 10 5h78q6 0 7.5 -3t-2.5 -8l-110 -98q-4 -5 -11 -5h-56zM175 552q-13 0 -5 11l89 98q4 5 11 5h84q6 0 7.5 -3t-3.5 -8l-116 -99q-5 -4 -11 -4h-56z" />
    <glyph glyph-name="gravecomb" unicode="&#x300;" 
d="M-63 548q-6 0 -10 4l-124 103q-3 3 -3.5 5.5t1.5 4t6 1.5h88q6 0 11 -5l93 -103q4 -4 2.5 -7t-6.5 -3h-58z" />
    <glyph glyph-name="acutecomb" unicode="&#x301;" 
d="M-186 548q-6 0 -7.5 3t2.5 8l93 102q4 5 11 5h87q4 0 6 -1.5t1.5 -4t-3.5 -5.5l-131 -103q-5 -4 -11 -4h-48z" />
    <glyph glyph-name="uni0302" unicode="&#x302;" 
d="M-286 539q-13 0 -4 11l102 108q3 5 10 5h36q6 0 11 -5l102 -108q9 -11 -4 -11h-54q-6 0 -11 5l-56 62q-4 7 -12 0l-55 -62q-3 -5 -10 -5h-55z" />
    <glyph glyph-name="tildecomb" unicode="&#x303;" 
d="M-339 529q-8 0 -8 9q3 108 94 108q35 0 62 -18t48 -35.5t42 -17.5q43 0 46 62q0 9 9 9h40q9 0 9 -9q-2 -57 -28.5 -86t-70.5 -29q-34 0 -60.5 17.5t-48 35t-42.5 17.5q-42 0 -45 -54q0 -9 -9 -9h-38z" />
    <glyph glyph-name="uni0304" unicode="&#x304;" 
d="M-284 580q-9 0 -9 9v39q0 8 9 8h248q9 0 9 -8v-39q0 -9 -9 -9h-248z" />
    <glyph glyph-name="uni0306" unicode="&#x306;" 
d="M-147 534q-63 0 -104.5 32.5t-45.5 90.5q0 9 9 9h51q9 0 9 -9q4 -30 26.5 -47.5t54.5 -17.5q33 0 55.5 17.5t25.5 47.5q2 9 9 9h52q9 0 9 -10q-4 -58 -45.5 -90t-105.5 -32z" />
    <glyph glyph-name="uni0307" unicode="&#x307;" 
d="M-93 568q-9 0 -9 9v80q0 9 9 9h65q8 0 8 -9v-80q0 -9 -8 -9h-65z" />
    <glyph glyph-name="uni0308" unicode="&#x308;" 
d="M-261 566q-9 0 -9 8v83q0 9 9 9h69q8 0 8 -9v-83q0 -8 -8 -8h-69zM-97 566q-9 0 -9 8v83q0 9 9 9h69q9 0 9 -9v-83q0 -8 -9 -8h-69z" />
    <glyph glyph-name="uni030A" unicode="&#x30a;" 
d="M-97 528q-42 0 -70.5 29.5t-28.5 71.5q0 41 28.5 70t70.5 29q41 0 70.5 -28.5t29.5 -70.5t-29.5 -71.5t-70.5 -29.5zM-97 576q22 0 37.5 15t15.5 38q0 22 -15 37t-38 15t-37.5 -14.5t-14.5 -37.5q0 -24 15 -38.5t37 -14.5z" />
    <glyph glyph-name="uni030B" unicode="&#x30b;" 
d="M-357 552q-14 0 -6 11l90 98q3 5 10 5h78q6 0 7.5 -3t-2.5 -8l-110 -98q-4 -5 -11 -5h-56zM-188 552q-13 0 -5 11l89 98q4 5 11 5h84q6 0 7.5 -3t-3.5 -8l-116 -99q-5 -4 -11 -4h-56z" />
    <glyph glyph-name="uni030C" unicode="&#x30c;" 
d="M-175 539q-8 0 -11 5l-105 111q-8 11 4 11h55q7 0 10 -5l55 -60q7 -7 13 0l56 60q3 5 10 5h54q13 0 5 -11l-106 -111q-5 -5 -11 -5h-29z" />
    <glyph glyph-name="uni0312" unicode="&#x312;" 
d="M141 693q11 0 6 -9l-54 -117q-3 -6 -10 -6h-86q-5 0 -7 3t2 7l101 117q4 5 11 5h37z" />
    <glyph glyph-name="uni0326" unicode="&#x326;" 
d="M-159 -216q-11 0 -6 10l54 131q1 7 10 7h86q5 0 7 -3.5t-2 -7.5l-101 -132q-4 -5 -11 -5h-37z" />
    <glyph glyph-name="uni0327" unicode="&#x327;" 
d="M-90 -244q-30 0 -54 15.5t-37 39.5q-3 8 4 12l32 16q9 4 12 -4q11 -27 40 -27q18 0 30.5 12.5t13.5 30.5q1 32 -42 45l-53 17q-8 3 -4 12l41 75h63l-40 -61q46 -13 69 -32.5t23 -52.5q0 -43 -29.5 -70.5t-68.5 -27.5z" />
    <glyph glyph-name="uni0328" unicode="&#x328;" 
d="M-61 -221q-46 0 -75 26.5t-29 72.5q0 77 83 128l49 -6q-75 -62 -75 -111q0 -27 13.5 -40.5t33.5 -11.5q25 0 46 23q5 7 13 3l34 -23q6 -6 3 -11q-35 -50 -96 -50z" />
    <glyph glyph-name="uni0335" unicode="&#x335;" 
d="M-383 256q-10 0 -10 10v24q0 10 10 10h295q10 0 10 -10v-24q0 -10 -10 -10h-295z" />
    <glyph glyph-name="uni0336" unicode="&#x336;" 
d="M-690 257q-9 0 -9 9v24q0 9 9 9h604q9 0 9 -9v-24q0 -9 -9 -9h-604z" />
    <glyph glyph-name="uni0337" unicode="&#x337;" 
d="M-402 41q-11 -8 -11 5v92q0 6 5 11l368 293q11 8 11 -6v-96q0 -6 -5 -11z" />
    <glyph glyph-name="uni0338" unicode="&#x338;" 
d="M-593 41q-5 -7 -12 0l-27 28q-6 7 0 13l577 577q7 7 13 0l28 -27q6 -6 0 -13z" />
    <glyph glyph-name="endash" unicode="&#x2013;" horiz-adv-x="391" 
d="M28 217q-9 0 -9 8v51q0 9 9 9h335q9 0 9 -9v-51q0 -8 -9 -8h-335z" />
    <glyph glyph-name="emdash" unicode="&#x2014;" horiz-adv-x="1000" 
d="M9 217q-9 0 -9 8v51q0 9 9 9h982q9 0 9 -9v-51q0 -8 -9 -8h-982z" />
    <glyph glyph-name="quoteleft" unicode="&#x2018;" horiz-adv-x="233" 
d="M155 690q11 0 8 -10l-41 -142h36q9 0 9 -9v-99q0 -9 -9 -9h-104q-9 0 -9 9v103q0 4 2 10l61 139q3 8 11 8h36z" />
    <glyph glyph-name="quoteright" unicode="&#x2019;" horiz-adv-x="241" 
d="M77 421q-11 0 -8 10l41 142h-36q-9 0 -9 8v100q0 9 9 9h104q9 0 9 -9v-103q0 -3 -2 -11l-61 -139q-3 -7 -11 -7h-36z" />
    <glyph glyph-name="quotesinglbase" unicode="&#x201a;" horiz-adv-x="266" 
d="M72 -152q-11 0 -8 10l41 142h-36q-9 0 -9 9v100q0 8 9 8h104q9 0 9 -8v-104q0 -4 -2 -10l-61 -139q-3 -8 -11 -8h-36z" />
    <glyph glyph-name="quotedblleft" unicode="&#x201c;" horiz-adv-x="435" 
d="M155 690q11 0 8 -10l-41 -142h36q9 0 9 -9v-99q0 -9 -9 -9h-104q-9 0 -9 9v103q0 4 2 10l61 139q3 8 11 8h36zM357 690q11 0 8 -10l-41 -142h36q9 0 9 -9v-99q0 -9 -9 -9h-104q-9 0 -9 9v103q0 4 2 10l62 139q3 8 10 8h36z" />
    <glyph glyph-name="quotedblright" unicode="&#x201d;" horiz-adv-x="451" 
d="M77 421q-11 0 -8 10l41 142h-36q-9 0 -9 8v100q0 9 9 9h104q9 0 9 -9v-103q0 -3 -2 -11l-61 -139q-3 -7 -11 -7h-36zM288 421q-11 0 -8 10l41 142h-36q-9 0 -9 8v100q0 9 9 9h104q9 0 9 -9v-103q0 -3 -2 -11l-62 -139q-3 -7 -10 -7h-36z" />
    <glyph glyph-name="quotedblbase" unicode="&#x201e;" horiz-adv-x="477" 
d="M72 -152q-11 0 -8 10l41 142h-36q-9 0 -9 9v100q0 8 9 8h104q9 0 9 -8v-104q0 -4 -2 -10l-61 -139q-3 -8 -11 -8h-36zM283 -152q-11 0 -8 10l41 142h-36q-9 0 -9 9v100q0 8 9 8h104q9 0 9 -8v-104q0 -4 -2 -10l-62 -139q-3 -8 -10 -8h-36z" />
    <glyph glyph-name="dagger" unicode="&#x2020;" horiz-adv-x="397" 
d="M170 -100q-9 0 -9 9v502h-99q-9 0 -9 9v58q0 9 9 9h99v194q0 9 9 9h57q9 0 9 -9v-194h99q9 0 9 -9v-58q0 -9 -9 -9h-99v-502q0 -9 -9 -9h-57z" />
    <glyph glyph-name="daggerdbl" unicode="&#x2021;" horiz-adv-x="397" 
d="M170 -100q-9 0 -9 9v194h-99q-9 0 -9 9v58q0 9 9 9h99v232h-99q-9 0 -9 9v58q0 9 9 9h99v194q0 9 9 9h57q9 0 9 -9v-194h99q9 0 9 -9v-58q0 -9 -9 -9h-99v-232h99q9 0 9 -9v-58q0 -9 -9 -9h-99v-194q0 -9 -9 -9h-57z" />
    <glyph glyph-name="bullet" unicode="&#x2022;" horiz-adv-x="397" 
d="M199 91q-70 0 -119.5 50t-49.5 120t49.5 119t119.5 49q69 0 118.5 -49t49.5 -119t-49.5 -120t-118.5 -50z" />
    <glyph glyph-name="ellipsis" unicode="&#x2026;" horiz-adv-x="818" 
d="M64 0q-9 0 -9 9v100q0 8 9 8h104q9 0 9 -8v-100q0 -9 -9 -9h-104zM357 0q-9 0 -9 9v100q0 8 9 8h104q9 0 9 -8v-100q0 -9 -9 -9h-104zM649 0q-8 0 -8 9v100q0 8 8 8h105q8 0 8 -8v-100q0 -9 -8 -9h-105z" />
    <glyph glyph-name="perthousand" unicode="&#x2030;" horiz-adv-x="1024" 
d="M161 383q-36 0 -63 15.5t-41 40.5t-20.5 50.5t-6.5 51.5t6.5 52t20 51.5t40 41t61.5 15.5q63 0 97 -48.5t34 -111.5t-33 -110.5t-95 -47.5zM143 1q-5 0 -7.5 2.5t0.5 7.5l360 672q3 6 11 6h68q5 0 7 -2.5t-1 -7.5l-360 -672q-3 -6 -10 -6h-68zM159 451q27 0 42 27.5
t15 63.5t-15.5 62.5t-42.5 26.5t-42 -26.5t-15 -63.5q0 -36 15.5 -63t42.5 -27zM565 -2q-36 0 -63 15.5t-41 40.5t-20.5 51t-6.5 52q0 27 6.5 53t20 51.5t40 41t61.5 15.5q63 0 97 -48.5t34 -112.5q0 -63 -33 -111t-95 -48zM866 -2q-46 0 -77.5 27.5t-42.5 61.5t-11 70
q0 60 31 110.5t97 50.5q64 0 98 -48.5t34 -112.5q0 -63 -33.5 -111t-95.5 -48zM564 67q26 0 41 27t15 64t-15 64t-43 27q-27 0 -42 -27.5t-15 -64.5t15.5 -63.5t43.5 -26.5zM864 67q27 0 42 27t15 64t-15 64t-43 27q-27 0 -41.5 -27t-14.5 -65q0 -37 14.5 -63.5t42.5 -26.5z
" />
    <glyph glyph-name="guilsinglleft" unicode="&#x2039;" horiz-adv-x="283" 
d="M238 124q0 -6 -3.5 -7.5t-7.5 2.5l-175 174q-4 6 0 12l175 174q4 5 7.5 3.5t3.5 -7.5v-72q0 -5 -5 -10l-88 -94l88 -93q5 -5 5 -10v-72z" />
    <glyph glyph-name="guilsinglright" unicode="&#x203a;" horiz-adv-x="283" 
d="M57 119q-5 -4 -8 -2.5t-3 7.5v72q0 5 5 10l88 93l-88 94q-5 5 -5 10v72q0 4 1.5 6t4 1.5t5.5 -3.5l174 -174q6 -6 0 -12z" />
    <glyph glyph-name="fraction" unicode="&#x2044;" horiz-adv-x="150" 
d="M-143 0q-14 0 -7 12l364 671q3 7 12 7h68q12 0 7 -12l-365 -671q-3 -7 -12 -7h-67z" />
    <glyph glyph-name="Euro" unicode="&#x20ac;" horiz-adv-x="654" 
d="M615 83q7 -6 1 -12q-81 -81 -208 -81q-120 0 -196 69t-100 183h-104q-12 0 -7 11l20 39q3 7 11 7h72q-2 30 -2 46q0 23 1 34h-93q-12 0 -7 11l21 41q2 6 11 6h75q22 119 97.5 191.5t199.5 72.5q103 0 175 -55q6 -3 4 -12l-23 -60q-1 -5 -4.5 -6t-7.5 3q-66 56 -146 56
q-85 0 -137.5 -52t-70.5 -138h301q11 0 6 -10l-18 -43q-3 -6 -10 -6l-288 1q-1 -12 -1 -36q0 -16 2 -44h251q12 0 8 -11l-16 -39q-3 -7 -10 -7h-223q19 -79 71.5 -126t136.5 -47q94 0 152 54q6 6 13 1z" />
    <glyph glyph-name="trademark" unicode="&#x2122;" horiz-adv-x="593" 
d="M215 690q9 0 9 -9v-33q0 -9 -9 -9h-71v-202q0 -9 -9 -9h-40q-8 0 -8 9v202h-72q-9 0 -9 9v33q0 9 9 9h200zM533 690q9 0 9 -9v-244q0 -9 -9 -9h-40q-9 0 -9 9v171l-53 -173q-3 -7 -11 -7h-33q-7 0 -10 7l-56 176v-174q0 -9 -9 -9h-39q-9 0 -9 9v244q0 9 9 9h61q8 0 11 -7
l58 -196l60 196q3 7 10 7h60z" />
    <glyph glyph-name="uni2126" unicode="&#x2126;" horiz-adv-x="724" 
d="M44 0q-9 0 -9 9v60q0 8 9 8h146q-70 41 -111.5 115.5t-41.5 161.5q0 138 95.5 235.5t229.5 97.5q136 0 230.5 -98t94.5 -238q0 -86 -38.5 -160t-106.5 -114h139q8 0 8 -9v-59q0 -9 -8 -9h-237q-9 0 -9 9v59q0 8 7 11q72 22 117.5 98t45.5 171q0 118 -70 189.5t-172 71.5
q-104 0 -174 -73t-70 -186q0 -90 46.5 -164t117.5 -107q6 -3 6 -10v-60q0 -9 -8 -9h-237z" />
    <glyph glyph-name="uni2206" unicode="&#x2206;" horiz-adv-x="563" 
d="M15 0q-11 0 -7 11l268 683q2 5 6 5t6 -5l267 -683q4 -11 -7 -11h-533zM120 78h324l-162 426z" />
    <glyph glyph-name="summation" unicode="&#x2211;" horiz-adv-x="574" 
d="M43 0q-9 0 -9 9v24q0 3 4 11l277 301l-277 302q-4 6 -4 11v23q0 9 9 9h488q9 0 9 -9v-61q0 -8 -9 -8h-355l246 -261q8 -6 0 -12l-246 -261h355q9 0 9 -8v-61q0 -9 -9 -9h-488z" />
    <glyph glyph-name="radical" unicode="&#x221a;" horiz-adv-x="547" 
d="M234 -83q-2 -5 -6 -5t-6 5l-124 358h-65q-9 0 -9 9v60q0 9 9 9h114q8 0 10 -7l75 -239l219 579q3 9 12 5l57 -21q10 -3 6 -12z" />
    <glyph glyph-name="infinity" unicode="&#x221e;" horiz-adv-x="790" 
d="M197 164q-86 0 -134.5 53.5t-48.5 141.5t48.5 141.5t134.5 53.5q54 0 106 -30t92 -85q40 55 92 85t106 30q86 0 134.5 -53.5t48.5 -141.5t-48.5 -141.5t-134.5 -53.5q-53 0 -105.5 30t-92.5 85q-39 -55 -91.5 -85t-106.5 -30zM212 244q38 0 77 30.5t66 84.5
q-27 53 -66.5 84t-76.5 31q-51 0 -82.5 -30.5t-31.5 -84.5t31.5 -84.5t82.5 -30.5zM578 244q51 0 82.5 30.5t31.5 84.5t-31.5 84.5t-82.5 30.5q-38 0 -77 -30.5t-65 -84.5q27 -54 66 -84.5t76 -30.5z" />
    <glyph glyph-name="approxequal" unicode="&#x2248;" horiz-adv-x="612" 
d="M394 253q-33 0 -63 14.5t-48 31.5t-42 31.5t-46 14.5q-50 0 -50 -69q0 -9 -9 -9h-50q-9 0 -9 9q2 60 32 96t85 36q40 0 72.5 -14t49.5 -31.5t38.5 -31.5t42.5 -14q55 0 57 79q0 9 9 9h54q9 0 9 -10q-2 -67 -36.5 -104.5t-95.5 -37.5zM394 55q-33 0 -63 14t-48 31.5
t-42 31.5t-46 14q-50 0 -50 -68q0 -9 -9 -9h-50q-9 0 -9 9q2 60 32 96t85 36q40 0 72.5 -14t49.5 -31.5t38.5 -31.5t42.5 -14q55 0 57 79q0 8 9 8h54q9 0 9 -9q-2 -67 -36.5 -104.5t-95.5 -37.5z" />
    <glyph glyph-name="notequal" unicode="&#x2260;" horiz-adv-x="594" 
d="M80 0q-10 0 -7 11l102 189h-97q-8 0 -8 9v60q0 8 8 8h139l55 102h-194q-8 0 -8 8v60q0 9 8 9h237l122 228q3 6 11 6h67q11 0 6 -11l-113 -223h100q9 0 9 -9v-60q0 -8 -9 -8h-150l-53 -102h203q9 0 9 -8v-60q0 -9 -9 -9h-247l-103 -194q-3 -6 -11 -6h-67z" />
    <glyph glyph-name="lessequal" unicode="&#x2264;" horiz-adv-x="603" 
d="M506 54l-444 242q-10 5 0 12l444 242q10 5 10 -7v-65q0 -7 -6 -10l-296 -160q-10 -7 0 -12l296 -158q6 -3 6 -11v-67q0 -13 -10 -6zM507 -68h-452q-9 0 -9 8v51q0 9 9 9h452q9 0 9 -9v-51q0 -8 -9 -8z" />
    <glyph glyph-name="greaterequal" unicode="&#x2265;" horiz-adv-x="596" 
d="M90 54q-11 -7 -11 6v67q0 8 7 11l296 158q10 5 0 12l-296 160q-7 4 -7 10v65q0 13 11 7l443 -242q10 -7 0 -12zM88 -68q-9 0 -9 8v51q0 9 9 9h452q9 0 9 -9v-51q0 -8 -9 -8h-452z" />
    <glyph glyph-name="lozenge" unicode="&#x25ca;" horiz-adv-x="529" 
d="M228 0q-7 0 -10 6l-176 338q-3 6 0 12l176 338q3 6 10 6h74q8 0 10 -6l176 -338q3 -6 0 -12l-176 -338q-2 -6 -10 -6h-74zM265 88l132 262l-132 262l-132 -262z" />
    <glyph glyph-name="f_t" horiz-adv-x="608" 
d="M574 442h-112v-286q0 -46 15.5 -64.5t54.5 -18.5h42q9 0 9 -8v-56q0 -9 -9 -9h-73q-130 0 -130 135v307h-175v-433q0 -9 -9 -9h-73q-9 0 -9 9v433h-81q-9 0 -9 9v52q0 9 9 9h81v33q0 66 40.5 105.5t110.5 39.5h59q9 0 9 -9v-53q0 -9 -9 -9h-48q-33 0 -52 -20t-19 -53v-34
h175v129q0 9 9 9h73q9 0 9 -9v-129h112q9 0 9 -9v-52q0 -9 -9 -9z" />
    <glyph glyph-name="t_t" horiz-adv-x="593" 
d="M559 442h-112v-286q0 -46 15.5 -64.5t54.5 -18.5h42q9 0 9 -8v-56q0 -9 -9 -9h-73q-129 0 -129 135v307h-175v-286q0 -46 15.5 -64.5t53.5 -18.5h43q8 0 8 -8v-56q0 -9 -8 -9h-73q-130 0 -130 135v307h-67q-9 0 -9 9v52q0 9 9 9h67v129q0 9 9 9h73q9 0 9 -9v-129h175v129
q0 9 9 9h72q9 0 9 -9v-129h112q9 0 9 -9v-52q0 -9 -9 -9z" />
    <glyph glyph-name="HankenDesign" horiz-adv-x="904" 
d="M452 -30q-157 0 -267.5 110.5t-110.5 267.5t110.5 267.5t267.5 110.5t267.5 -110.5t110.5 -267.5t-110.5 -267.5t-267.5 -110.5zM452 5q142 0 242.5 100.5t100.5 242.5t-100.5 242.5t-242.5 100.5t-242.5 -100.5t-100.5 -242.5t100.5 -242.5t242.5 -100.5zM255 200
q-7 0 -12 5t-5 12v262q0 7 5 12.5t12 5.5t12.5 -5.5t5.5 -12.5v-262q0 -17 -18 -17zM452 200q-17 0 -17 17v262q0 18 17 18t17 -18v-262q0 -17 -17 -17zM648 200q-7 0 -11 5l-132 131q-5 5 -5 12t5 12l132 131q5 6 11 6q7 0 12.5 -6t5.5 -13q0 -6 -5 -11l-119 -119l119 -119
q5 -5 5 -11q0 -7 -5.5 -12.5t-12.5 -5.5zM321 331q-17 0 -17 17t17 17h65q18 0 18 -17t-18 -17h-65z" />
    </font>
</defs>
</svg>
