<?xml version="1.0" standalone="no"?>
<!DOCTYPE svg PUBLIC "-//W3C//DTD SVG 1.1//EN" "http://www.w3.org/Graphics/SVG/1.1/DTD/svg11.dtd" >
<svg xmlns="http://www.w3.org/2000/svg" xmlns:xlink="http://www.w3.org/1999/xlink" version="1.1">
<metadata>
Created by FontForge 20190801 at Fri Jun 21 10:15:31 2019
 By www-data
Copyright (c)2016, Arco Perpetuo Pro designed by Alfredo Marco Pradil (ammpradil@gmail.com). Arco Perpetuo Pro is a trademark of Alfredo Marco Pradil.
</metadata>
<defs>
<font id="ArcoPerpetuoProBold" horiz-adv-x="0" >
  <font-face 
    font-family="ArcoPerpetuoProBold"
    font-weight="700"
    font-stretch="normal"
    units-per-em="1000"
    panose-1="0 0 8 0 0 0 0 0 0 0"
    ascent="800"
    descent="-200"
    x-height="512"
    cap-height="690"
    bbox="-758 -244 1113 874"
    underline-thickness="40"
    underline-position="-100"
    unicode-range="U+0020-FB02"
  />
<missing-glyph horiz-adv-x="420" 
d="M17 0q-7 0 -7 7v474q0 7 7 7h387q6 0 6 -7v-474q0 -7 -6 -7h-387zM60 50h300v388h-300v-388z" />
    <glyph glyph-name="arrowleft" unicode="&#x3c;&#x2d;" horiz-adv-x="1152" 
d="M1107 373q6 0 6 -6v-114q0 -6 -6 -6h-743l200 -107q4 -3 4 -7v-110q0 -9 -7 -5l-514 290q-8 4 0 8l514 285q7 3 7 -5v-110q0 -4 -4 -8l-199 -105h742z" />
    <glyph glyph-name="arrowright" unicode="&#x2d;&#x3e;" horiz-adv-x="1152" 
d="M1105 316q8 -4 0 -8l-514 -290q-7 -4 -7 5v110q0 5 5 7l199 107h-743q-6 0 -6 6v114q0 6 6 6h743l-199 105q-5 3 -5 8v110q0 8 7 5z" />
    <glyph glyph-name="fi" unicode="fi" horiz-adv-x="617" 
d="M551 512q6 0 6 -7v-498q0 -7 -6 -7h-137q-6 0 -6 7v401h-150v-401q0 -7 -6 -7h-137q-7 0 -7 7v401h-85q-7 0 -7 7v90q0 7 7 7h87v42q0 62 40.5 99t111.5 37h75q7 0 7 -7v-81q0 -6 -7 -6h-42q-37 0 -37 -38v-46h293zM553 690q7 0 7 -7v-100q0 -7 -7 -7h-141q-6 0 -6 7v100
q0 7 6 7h141z" />
    <glyph glyph-name="fl" unicode="fl" horiz-adv-x="647" 
d="M106 0q-7 0 -7 7v403h-76q-7 0 -7 6v89q0 7 7 7h77v34q0 65 41 104.5t117 39.5h89q7 0 7 -7v-90q0 -6 -7 -6h-56q-42 0 -42 -46v-29h98q7 0 7 -7v-89q0 -6 -7 -6h-98v-403q0 -7 -7 -7h-136zM439 0q-7 0 -7 7v676q0 7 7 7h137q6 0 6 -7v-676q0 -7 -6 -7h-137z" />
    <glyph glyph-name="f_f" unicode="ff" horiz-adv-x="669" 
d="M593 587q-42 0 -42 -46v-29h98q7 0 7 -7v-89q0 -6 -7 -6h-98v-403q0 -7 -7 -7h-137q-6 0 -6 7v403h-152v-403q0 -7 -7 -7h-136q-7 0 -7 7v403h-76q-7 0 -7 6v89q0 7 7 7h77v34q0 65 41 104.5t117 39.5h89q7 0 7 -7v-90q0 -6 -7 -6h-56q-42 0 -42 -46v-29h153v34
q0 66 41 105t116 39h90q7 0 7 -7v-90q0 -6 -7 -6h-56z" />
    <glyph glyph-name="f_f_i" unicode="ffi" horiz-adv-x="937" 
d="M649 690q7 0 7 -7v-90q0 -6 -7 -6h-56q-42 0 -42 -46v-29h98q7 0 7 -7v-89q0 -6 -7 -6h-98v-403q0 -7 -7 -7h-137q-6 0 -6 7v403h-152v-403q0 -7 -7 -7h-136q-7 0 -7 7v403h-76q-7 0 -7 6v89q0 7 7 7h77v34q0 65 41 104.5t117 39.5h89q7 0 7 -7v-90q0 -6 -7 -6h-56
q-42 0 -42 -46v-29h153v34q0 66 41 105t116 39h90zM874 690q6 0 6 -7v-100q0 -7 -6 -7h-141q-7 0 -7 7v100q0 7 7 7h141zM871 512q7 0 7 -7v-498q0 -7 -7 -7h-137q-6 0 -6 7v498q0 7 6 7h137z" />
    <glyph glyph-name="f_f_l" unicode="ffl" horiz-adv-x="948" 
d="M649 690q7 0 7 -7v-90q0 -6 -7 -6h-56q-42 0 -42 -46v-29h98q7 0 7 -7v-89q0 -6 -7 -6h-98v-403q0 -7 -7 -7h-137q-6 0 -6 7v403h-152v-403q0 -7 -7 -7h-136q-7 0 -7 7v403h-76q-7 0 -7 6v89q0 7 7 7h77v34q0 65 41 104.5t117 39.5h89q7 0 7 -7v-90q0 -6 -7 -6h-56
q-42 0 -42 -46v-29h153v34q0 66 41 105t116 39h90zM877 690q7 0 7 -7v-676q0 -7 -7 -7h-137q-6 0 -6 7v676q0 7 6 7h137z" />
    <glyph glyph-name=".notdef" horiz-adv-x="420" 
d="M17 0q-7 0 -7 7v474q0 7 7 7h387q6 0 6 -7v-474q0 -7 -6 -7h-387zM60 50h300v388h-300v-388z" />
    <glyph glyph-name=".null" 
 />
    <glyph glyph-name="nonmarkingreturn" horiz-adv-x="333" 
 />
    <glyph glyph-name="space" unicode=" " horiz-adv-x="229" 
 />
    <glyph glyph-name="exclam" unicode="!" horiz-adv-x="294" 
d="M98 223q-7 0 -7 6l-14 454q0 7 7 7h126q7 0 7 -7l-14 -454q0 -6 -7 -6h-98zM78 0q-7 0 -7 7v137q0 6 7 6h138q7 0 7 -6v-137q0 -7 -7 -7h-138z" />
    <glyph glyph-name="quotedbl" unicode="&#x22;" horiz-adv-x="415" 
d="M59 408q-7 0 -7 6v269q0 7 7 7h94q7 0 7 -7v-269q0 -6 -7 -6h-94zM260 408q-6 0 -6 6v269q0 7 6 7h95q6 0 6 -7v-269q0 -6 -6 -6h-95z" />
    <glyph glyph-name="numbersign" unicode="#" horiz-adv-x="684" 
d="M103 0q-7 0 -6 7l39 190h-94q-7 0 -7 7v83q0 6 7 6h114l22 113h-98q-6 0 -6 7v80q0 6 6 6h118l39 185q1 6 7 6h86q7 0 6 -7l-37 -177h149l38 178q2 6 7 6h85q8 0 7 -7l-37 -182h94q7 0 7 -6v-82q0 -7 -7 -7h-114l-22 -113h98q7 0 7 -6v-81q0 -7 -7 -7h-117l-40 -193
q-1 -6 -8 -6h-86q-8 0 -7 7l40 186h-150l-38 -187q-2 -6 -8 -6h-87zM256 293h150l22 113h-150z" />
    <glyph glyph-name="dollar" unicode="$" horiz-adv-x="593" 
d="M566 208q0 -89 -52 -145t-147 -69v-77q0 -7 -7 -7h-117q-6 0 -6 7v79q-91 16 -150 72.5t-61 159.5q0 6 7 6h139q6 0 6 -6q3 -57 40 -83.5t93 -26.5q44 0 70 20.5t26 55.5q0 17 -7.5 30t-17.5 22t-30 18t-36 14.5t-44 14.5q-9 3 -13 4q-27 8 -43 13.5t-41 16t-40.5 20.5
t-34 26.5t-29 34t-17.5 42.5t-7 54q0 81 51.5 131t138.5 62v76q0 7 6 7h117q7 0 7 -7v-80q80 -15 128 -62.5t50 -129.5q0 -6 -7 -6h-142q-7 0 -7 6q-2 42 -30.5 61.5t-70.5 19.5q-85 0 -85 -62q0 -32 28 -49t95 -40q104 -33 140 -54q100 -58 100 -169z" />
    <glyph glyph-name="percent" unicode="%" horiz-adv-x="781" 
d="M191 364q-42 0 -73 17.5t-46.5 45t-22.5 53.5t-7 51q0 21 4 42t14.5 44.5t26 41.5t42 30t59.5 12q72 0 109.5 -53t37.5 -118q0 -64 -36.5 -115t-107.5 -51zM149 0q-9 0 -6 8l363 677q3 5 8 5h116q8 0 5 -8l-364 -677q-2 -5 -8 -5h-114zM189 470q16 0 27.5 17t11.5 44
q0 30 -11.5 47.5t-28.5 17.5q-18 0 -29.5 -17.5t-11.5 -47.5q0 -28 12 -44.5t30 -16.5zM595 -7q-55 0 -90.5 30.5t-47 66t-11.5 72.5q0 27 7 55t22 56t45.5 46t71.5 18q73 0 110 -54t37 -121q0 -65 -36.5 -117t-107.5 -52zM594 97q15 0 26.5 19t11.5 47q0 30 -12 48.5
t-28 18.5q-17 0 -29 -18.5t-12 -49.5q0 -29 12 -47t31 -18z" />
    <glyph glyph-name="ampersand" unicode="&#x26;" horiz-adv-x="708" 
d="M715 9q7 -9 -3 -9h-177q-6 0 -9 4l-61 63q-73 -80 -193 -80q-102 0 -173 51.5t-71 145.5q0 71 41.5 119.5t108.5 73.5q-79 61 -79 148q0 58 32.5 99t78 58t97.5 17q85 0 145 -45t60 -130q0 -53 -30 -93.5t-106 -84.5l92 -92l68 102q3 5 8 5h147q9 0 4 -9l-138 -185z
M309 580q-28 0 -46.5 -18.5t-18.5 -45.5q0 -36 51 -89l1 -1q44 27 60.5 47t16.5 44q0 26 -18 44.5t-46 18.5zM277 107q58 0 98 53l-120 127q-74 -30 -74 -92q0 -41 28 -64.5t68 -23.5z" />
    <glyph glyph-name="quotesingle" unicode="'" horiz-adv-x="226" 
d="M59 422q-7 0 -7 6v269q0 7 7 7h108q7 0 7 -7v-269q0 -6 -7 -6h-108z" />
    <glyph glyph-name="parenleft" unicode="(" horiz-adv-x="327" 
d="M187 -163q-2 0 -4.5 1.5t-3.5 1.5q-58 59 -102.5 182t-44.5 268t44.5 260.5t98.5 175.5q3 4 8 4h107q10 0 4 -8q-137 -159 -137 -434q0 -140 33.5 -246.5t103.5 -196.5q6 -8 -4 -8h-103z" />
    <glyph glyph-name="parenright" unicode=")" horiz-adv-x="328" 
d="M152 -163h-103q-10 0 -4 8q70 90 103.5 196.5t33.5 246.5q0 275 -137 434q-6 8 4 8h107q5 0 8 -4q54 -60 98.5 -175.5t44.5 -260.5t-44.5 -268t-102.5 -182q-1 0 -3.5 -1.5t-4.5 -1.5z" />
    <glyph glyph-name="asterisk" unicode="*" horiz-adv-x="357" 
d="M127 379q-4 -7 -9 -2l-57 44q-5 5 -1 9l75 88l-108 17q-5 1 -4 7l21 73q2 7 8 4l99 -44l-13 108q0 7 6 7h72q6 0 6 -7l-15 -108l100 44q6 3 8 -4l20 -73q1 -5 -5 -7l-105 -17l74 -88q4 -4 -1 -9l-56 -44q-7 -5 -9 2l-53 100z" />
    <glyph glyph-name="plus" unicode="+" horiz-adv-x="673" 
d="M287 24q-6 0 -6 7v218h-217q-6 0 -6 6v100q0 6 6 6h217v218q0 7 6 7h99q6 0 6 -7v-218h217q6 0 6 -6v-100q0 -6 -6 -6h-217v-218q0 -7 -6 -7h-99z" />
    <glyph glyph-name="comma" unicode="," horiz-adv-x="276" 
d="M66 -150q-9 0 -6 8l48 142h-58q-7 0 -7 7v147q0 6 7 6h166q6 0 6 -6v-150q0 -2 -2 -8l-82 -139q-4 -7 -9 -7h-63z" />
    <glyph glyph-name="hyphen" unicode="-" horiz-adv-x="359" 
d="M33 192q-6 0 -6 6v110q0 7 6 7h293q7 0 7 -7v-110q0 -6 -7 -6h-293z" />
    <glyph glyph-name="period" unicode="." horiz-adv-x="272" 
d="M53 0q-7 0 -7 7v147q0 6 7 6h166q7 0 7 -6v-147q0 -7 -7 -7h-166z" />
    <glyph glyph-name="slash" unicode="/" horiz-adv-x="528" 
d="M48 -76q-9 0 -5 8l308 751q3 6 8 6h121q9 0 5 -8l-308 -752q-3 -5 -8 -5h-121z" />
    <glyph glyph-name="zero" unicode="0" horiz-adv-x="594" 
d="M299 -10q-136 0 -204.5 96.5t-68.5 258.5t67 259t199 97q134 0 205 -96t71 -261q0 -163 -69.5 -258.5t-199.5 -95.5zM296 126q59 0 86.5 61t27.5 159q0 97 -28.5 157t-89.5 60q-59 0 -86.5 -60t-27.5 -158t28.5 -158.5t89.5 -60.5z" />
    <glyph glyph-name="one" unicode="1" horiz-adv-x="437" 
d="M206 0q-7 0 -7 7v531q-65 -78 -150 -86q-7 0 -7 6v127q0 7 6 7q79 9 152 94q3 4 8 4h137q6 0 6 -7v-676q0 -7 -6 -7h-139z" />
    <glyph glyph-name="two" unicode="2" horiz-adv-x="604" 
d="M549 130q7 0 7 -7v-116q0 -7 -7 -7h-495v109q0 67 36 115t87 74.5t102.5 49t87.5 53.5t36 73q0 47 -26 70.5t-69 23.5q-101 0 -103 -124q0 -6 -6 -6h-137q-6 0 -6 6q3 117 68.5 186t190.5 69q104 0 169 -60.5t65 -155.5q0 -58 -24.5 -104t-62 -73t-81.5 -51.5t-82 -40.5
t-65 -37.5t-30 -46.5h345z" />
    <glyph glyph-name="three" unicode="3" horiz-adv-x="559" 
d="M281 -10q-106 0 -179 60t-76 172q0 7 6 7h135q6 0 6 -7q5 -46 35 -72.5t73 -26.5q44 0 74 25.5t30 68.5q0 42 -28 65t-72 23h-32q-6 0 -6 7v108q0 7 6 7h32q30 0 48 18t18 49q0 33 -22.5 52.5t-59.5 19.5q-38 0 -62 -24.5t-25 -66.5q0 -6 -7 -6h-132q-6 0 -6 6
q-3 105 63 165t166 60q96 0 164.5 -53t68.5 -142q0 -50 -25 -84t-63 -47v-3q50 -9 85.5 -49t37.5 -109q0 -108 -74 -165.5t-179 -57.5z" />
    <glyph glyph-name="four" unicode="4" horiz-adv-x="581" 
d="M531 272q6 0 6 -6v-111q0 -7 -6 -7h-74v-141q0 -7 -7 -7h-137q-7 0 -7 7v141h-273q-6 0 -6 7v132q0 4 2 8l299 391q3 4 8 4h114q7 0 7 -7v-411h74zM306 272v217l-155 -217h155z" />
    <glyph glyph-name="five" unicode="5" horiz-adv-x="592" 
d="M346 475q91 0 151.5 -62.5t60.5 -166.5q0 -115 -75 -185.5t-187 -70.5q-106 0 -184 61.5t-81 163.5q0 7 6 7h148q6 0 8 -7q5 -40 36 -61t73 -21q44 0 74 29.5t30 81.5q0 48 -30.5 77.5t-73.5 29.5q-61 0 -101 -51q-3 -4 -8 -4h-146q-7 0 -6 7l71 381q2 6 8 6h400
q7 0 7 -7v-110q0 -7 -7 -7h-297l-26 -144l1 -1q58 54 148 54z" />
    <glyph glyph-name="six" unicode="6" horiz-adv-x="562" 
d="M289 -10q-117 0 -190 82t-73 239q0 59 4.5 106t20.5 102.5t44 92.5t79.5 62.5t122.5 25.5q57 0 106.5 -18t86.5 -64t39 -113q0 -7 -7 -7h-132q-7 0 -7 7q-3 36 -29.5 55t-65.5 19q-43 0 -70.5 -28.5t-36.5 -66.5t-10 -86q53 53 141 53q99 0 161.5 -59.5t62.5 -162.5
q0 -108 -70.5 -173.5t-176.5 -65.5zM279 122q46 0 76 29.5t30 75.5q0 45 -30 74t-76 29q-45 0 -73.5 -29t-28.5 -73q0 -46 28.5 -76t73.5 -30z" />
    <glyph glyph-name="seven" unicode="7" horiz-adv-x="482" 
d="M108 0q-8 0 -6 8l217 551h-284q-6 0 -6 7v117q0 7 6 7h424q7 0 7 -7v-134q0 -4 -1 -8l-200 -536q-2 -5 -7 -5h-150z" />
    <glyph glyph-name="eight" unicode="8" horiz-adv-x="577" 
d="M289 -10q-117 0 -190.5 55t-73.5 149q0 64 37 113.5t101 63.5v3q-45 13 -74 53t-29 88q0 80 64.5 132.5t164.5 52.5t164 -52.5t64 -132.5q0 -49 -29 -88.5t-74 -52.5v-3q64 -15 101 -64t37 -113q0 -94 -73 -149t-190 -55zM290 428q34 0 57 22t23 54t-23 54t-57 22
q-36 0 -58.5 -21.5t-22.5 -53.5q0 -33 22.5 -55t58.5 -22zM288 116q49 0 80 28t31 72q0 43 -31 70.5t-80 27.5t-79.5 -27.5t-30.5 -70.5q0 -44 30.5 -72t79.5 -28z" />
    <glyph glyph-name="nine" unicode="9" horiz-adv-x="562" 
d="M273 700q117 0 190.5 -82t73.5 -239q0 -48 -3.5 -87.5t-12.5 -87.5t-28 -83.5t-48 -66.5t-75 -47.5t-105 -16.5q-91 0 -159.5 48t-71.5 147q-2 7 6 7h132q7 0 7 -7q3 -36 29.5 -55t66.5 -19q63 0 89.5 52.5t26.5 128.5q-52 -53 -141 -53q-99 0 -161.5 59.5t-62.5 162.5
q0 108 70.5 173.5t176.5 65.5zM283 568q-46 0 -76 -29.5t-30 -75.5q0 -45 30 -74t76 -29q45 0 73.5 28.5t28.5 73.5q0 46 -28.5 76t-73.5 30z" />
    <glyph glyph-name="colon" unicode=":" horiz-adv-x="269" 
d="M52 349q-6 0 -6 7v147q0 7 6 7h167q6 0 6 -7v-147q0 -7 -6 -7h-167zM51 0q-6 0 -6 7v147q0 6 6 6h167q6 0 6 -6v-147q0 -7 -6 -7h-167z" />
    <glyph glyph-name="semicolon" unicode=";" horiz-adv-x="276" 
d="M49 349q-7 0 -7 7v147q0 7 7 7h166q7 0 7 -7v-147q0 -7 -7 -7h-166zM66 -150q-9 0 -6 8l48 142h-58q-7 0 -7 7v147q0 6 7 6h166q6 0 6 -6v-150q0 -2 -2 -8l-82 -139q-4 -7 -9 -7h-63z" />
    <glyph glyph-name="less" unicode="&#x3c;" horiz-adv-x="652" 
d="M572 57l-522 268q-8 4 0 8l522 268q3 2 5.5 0.5t2.5 -5.5v-119q0 -3 -5 -8l-275 -136q-10 -4 0 -8l275 -135q5 -3 5 -8v-120q0 -4 -2.5 -5.5t-5.5 0.5z" />
    <glyph glyph-name="equal" unicode="=" horiz-adv-x="542" 
d="M64 379q-6 0 -6 6v111q0 6 6 6h414q6 0 6 -6v-111q0 -6 -6 -6h-414zM64 154q-6 0 -6 6v111q0 6 6 6h414q6 0 6 -6v-111q0 -6 -6 -6h-414z" />
    <glyph glyph-name="greater" unicode="&#x3e;" horiz-adv-x="675" 
d="M96 57q-3 -2 -5.5 -0.5t-2.5 5.5v120q0 5 5 8l274 135q10 4 0 8l-274 136q-5 3 -5 8v119q0 4 2.5 5.5t5.5 -0.5l521 -268q10 -4 0 -8z" />
    <glyph glyph-name="question" unicode="?" horiz-adv-x="472" 
d="M179 221q-6 0 -6 6v61q0 35 12 60.5t25 36.5t37 27q4 3 13 8.5t13 8.5t11.5 9t11 10t8.5 10.5t7.5 13t4 15t1.5 18.5q0 34 -21.5 54.5t-59.5 20.5q-42 0 -64 -22.5t-24 -60.5q0 -7 -7 -7h-109q-7 0 -7 7q3 88 55 145.5t150 57.5q88 0 148.5 -47.5t60.5 -142.5
q0 -32 -5.5 -56t-19 -41t-22.5 -25t-30 -21t-26 -17q-16 -12 -23 -18t-13.5 -18t-6.5 -27v-60q0 -6 -7 -6h-107zM167 0q-7 0 -7 7v137q0 6 7 6h133q6 0 6 -6v-137q0 -7 -6 -7h-133z" />
    <glyph glyph-name="at" unicode="@" horiz-adv-x="958" 
d="M494 -160q0 -7 -6 -7q-177 -2 -301 125t-124 309q0 180 125 306.5t301 126.5q185 0 303.5 -121.5t118.5 -301.5q0 -94 -36 -168t-99 -110l-165 -3q-49 31 -51 93q-56 -56 -139 -56q-73 0 -115.5 51.5t-42.5 133.5q0 115 65.5 204.5t162.5 89.5q43 0 76 -17.5t48 -48.5
l7 35q0 6 7 6h78q8 0 7 -7l-70 -357q-6 -33 6 -44h100q37 25 54.5 82t17.5 122q0 139 -93 234t-240 95q-139 0 -238 -100t-99 -243q0 -145 97.5 -245.5t238.5 -97.5q6 0 6 -7v-79zM429 122q67 0 111 62t44 143q0 94 -81 94q-66 0 -110 -62.5t-44 -142.5q0 -94 80 -94z" />
    <glyph glyph-name="A" unicode="A" horiz-adv-x="682" 
d="M679 10q2 -10 -7 -10h-151q-4 0 -6 4l-47 150h-254l-47 -150q-2 -4 -5 -4h-152q-11 0 -7 10l235 676q1 4 6 4h193q5 0 6 -4zM253 277h177l-86 274h-4z" />
    <glyph glyph-name="B" unicode="B" horiz-adv-x="662" 
d="M79 0q-7 0 -7 7v676q0 7 7 7h298q106 0 164.5 -49.5t58.5 -139.5q0 -51 -26.5 -87t-66.5 -51v-4q58 -10 92.5 -53t34.5 -109q0 -93 -60.5 -145t-168.5 -52h-326zM227 412h148q35 0 59 21t24 56t-21.5 54t-58.5 19h-151v-150zM227 137h163q92 0 92 82q0 36 -25 56.5
t-67 20.5h-163v-159z" />
    <glyph glyph-name="C" unicode="C" horiz-adv-x="662" 
d="M341 -10q-81 0 -143 29.5t-98 80.5t-54 113t-18 133t18 133t54 112.5t98 80t143 29.5q124 0 206 -68.5t88 -200.5q0 -7 -6 -7h-131q-6 0 -6 6q-8 64 -46.5 100t-102.5 36q-77 0 -120.5 -58t-43.5 -162q0 -106 43.5 -164.5t121.5 -58.5q61 0 100.5 36.5t47.5 99.5q0 6 6 6
h131q6 0 6 -8q-7 -131 -89 -199.5t-205 -68.5z" />
    <glyph glyph-name="D" unicode="D" horiz-adv-x="681" 
d="M79 0q-7 0 -7 7v676q0 7 7 7h207q180 0 273.5 -90.5t93.5 -254.5q0 -166 -94.5 -255.5t-273.5 -89.5h-206zM227 137h46q227 0 227 209q0 207 -216 207h-57v-416z" />
    <glyph glyph-name="E" unicode="E" horiz-adv-x="586" 
d="M79 0q-7 0 -7 7v676q0 7 7 7h455q7 0 7 -7v-117q0 -7 -7 -7h-307v-148h278q7 0 7 -7v-117q0 -7 -7 -7h-278v-149h307q7 0 7 -6v-118q0 -7 -7 -7h-455z" />
    <glyph glyph-name="F" unicode="F" horiz-adv-x="571" 
d="M79 0q-7 0 -7 7v676q0 7 7 7h470q7 0 7 -7v-117q0 -7 -7 -7h-322v-148h279q7 0 7 -7v-117q0 -7 -7 -7h-279v-273q0 -7 -7 -7h-141z" />
    <glyph glyph-name="G" unicode="G" horiz-adv-x="733" 
d="M666 356h1v-351q0 -5 -5 -5h-94q-6 0 -6 4l-9 74q-29 -42 -74 -64.5t-121 -22.5q-150 0 -240 96.5t-90 258.5q0 154 89.5 254.5t250.5 100.5q133 0 214 -70t84 -180q0 -7 -6 -7h-130q-7 0 -7 6q-4 59 -47.5 90.5t-107.5 31.5q-96 0 -141 -63.5t-45 -162.5t45 -162.5
t141 -63.5q71 0 113.5 32t42.5 96h-161q-6 0 -6 6v104q0 6 6 6h297q6 0 6 -6v-2z" />
    <glyph glyph-name="H" unicode="H" horiz-adv-x="725" 
d="M79 0q-7 0 -7 7v675q0 7 7 7h141q7 0 7 -7v-268h271v268q0 7 7 7h141q7 0 7 -7v-675q0 -7 -7 -7h-141q-7 0 -7 7v270h-271v-270q0 -7 -7 -7h-141z" />
    <glyph glyph-name="I" unicode="I" horiz-adv-x="299" 
d="M79 0q-7 0 -7 7v676q0 7 7 7h141q7 0 7 -7v-676q0 -7 -7 -7h-141z" />
    <glyph glyph-name="J" unicode="J" horiz-adv-x="386" 
d="M112 -10q-64 0 -95 9q-5 1 -5 7v128q0 7 7 6q42 -9 71 -9q89 0 89 112v439q0 7 7 7h142q6 0 6 -7v-477q0 -99 -57.5 -157t-164.5 -58z" />
    <glyph glyph-name="K" unicode="K" horiz-adv-x="712" 
d="M705 8q6 -8 -4 -8h-180q-5 0 -8 4l-193 280l-93 -100v-177q0 -7 -7 -7h-141q-7 0 -7 7v675q0 7 7 7h141q7 0 7 -7v-307l268 310q3 4 8 4h181q9 0 3 -8l-266 -287z" />
    <glyph glyph-name="L" unicode="L" horiz-adv-x="528" 
d="M79 0q-7 0 -7 7v676q0 7 7 7h141q7 0 7 -7v-552h288q7 0 7 -7v-117q0 -7 -7 -7h-436z" />
    <glyph glyph-name="M" unicode="M" horiz-adv-x="937" 
d="M79 0q-7 0 -7 7v675q0 7 7 7h211q5 0 7 -6l170 -501l170 501q2 6 7 6h214q6 0 6 -7v-675q0 -7 -6 -7h-142q-6 0 -6 7v499h-6l-166 -501q-2 -5 -7 -5h-128q-5 0 -7 5l-165 501h-6v-499q0 -7 -7 -7h-139z" />
    <glyph glyph-name="N" unicode="N" horiz-adv-x="759" 
d="M79 0q-7 0 -7 7v676q0 7 7 7h150q4 0 8 -4l290 -459h5v456q0 7 6 7h142q6 0 6 -7v-676q0 -7 -6 -7h-152q-6 0 -8 4l-288 456h-5v-453q0 -7 -7 -7h-141z" />
    <glyph glyph-name="O" unicode="O" horiz-adv-x="721" 
d="M358 -10q-155 0 -242.5 95.5t-87.5 259.5t87.5 259.5t242.5 95.5q158 0 246.5 -95.5t88.5 -259.5t-88.5 -259.5t-246.5 -95.5zM358 123q80 0 125.5 56.5t45.5 165.5q0 113 -45 167.5t-126 54.5q-165 0 -165 -222q0 -109 43.5 -165.5t121.5 -56.5z" />
    <glyph glyph-name="P" unicode="P" horiz-adv-x="649" 
d="M79 0q-7 0 -7 7v676q0 7 7 7h314q111 0 174 -63t63 -167q0 -105 -62.5 -164.5t-174.5 -59.5h-167v-229q0 -7 -6 -7h-141zM226 363h148q103 0 103 99q0 95 -103 95h-148v-194z" />
    <glyph glyph-name="Q" unicode="Q" horiz-adv-x="721" 
d="M701 -53q6 0 6 -7v-108q0 -7 -6 -7q-68 1 -112 18t-65 41t-38.5 47.5t-48.5 40.5t-79 18q-155 0 -242.5 95.5t-87.5 259.5t87.5 259.5t242.5 95.5q158 0 246.5 -95.5t88.5 -259.5q0 -109 -40.5 -189.5t-116.5 -123.5q20 -10 37.5 -26.5t28 -28t35.5 -21t64 -9.5zM193 345
q0 -109 43.5 -165.5t121.5 -56.5q80 0 125.5 56.5t45.5 165.5q0 113 -45 167.5t-126 54.5q-165 0 -165 -222z" />
    <glyph glyph-name="R" unicode="R" horiz-adv-x="656" 
d="M639 7q5 -8 -5 -8h-159q-5 0 -7 5l-112 232h-130v-229q0 -7 -6 -7h-141q-7 0 -7 7v676q0 7 7 7h314q111 0 174 -63t63 -167q0 -154 -126 -204zM226 557v-194h148q103 0 103 99q0 95 -103 95h-148z" />
    <glyph glyph-name="S" unicode="S" horiz-adv-x="593" 
d="M311 -10q-53 0 -100.5 12.5t-89.5 38.5t-68 74t-27 113q0 6 7 6h139q6 0 6 -6q3 -57 40 -83.5t93 -26.5q44 0 70 20.5t26 55.5q0 17 -7.5 30t-17.5 22t-30 18t-36 14.5t-44 14.5q-9 3 -13 4q-27 8 -43 13.5t-41 16t-40.5 20.5t-34 26.5t-29 34t-17.5 42.5t-7 54
q0 93 66.5 144.5t174.5 51.5q112 0 183 -49t74 -150q0 -6 -7 -6h-142q-7 0 -7 6q-2 42 -30.5 61.5t-70.5 19.5q-85 0 -85 -62q0 -32 28 -49t95 -40q104 -33 140 -54q100 -58 100 -169q0 -102 -67.5 -160t-187.5 -58z" />
    <glyph glyph-name="T" unicode="T" horiz-adv-x="592" 
d="M225 0q-7 0 -7 7v553h-198q-7 0 -7 6v117q0 7 7 7h552q7 0 7 -7v-117q0 -6 -7 -6h-199v-553q0 -7 -7 -7h-141z" />
    <glyph glyph-name="U" unicode="U" horiz-adv-x="696" 
d="M346 -10q-138 0 -207.5 71t-69.5 201v421q0 7 6 7h142q6 0 6 -7v-426q0 -60 32 -93t91 -33q60 0 93.5 33t33.5 93v426q0 7 6 7h142q6 0 6 -7v-416q0 -133 -70.5 -205t-210.5 -72z" />
    <glyph glyph-name="V" unicode="V" horiz-adv-x="695" 
d="M686 690q7 0 5 -8l-238 -677q-2 -5 -7 -5h-197q-5 0 -7 5l-238 677q-2 8 6 8h146q5 0 7 -5l187 -562l181 562q3 5 8 5h147z" />
    <glyph glyph-name="W" unicode="W" horiz-adv-x="961" 
d="M173 0q-5 0 -7 6l-159 676q-3 8 6 8h146q7 0 8 -6l113 -553l119 553q0 6 7 6h149q8 0 8 -6l118 -553l113 553q2 6 8 6h146q8 0 6 -8l-160 -676q-2 -6 -7 -6h-204q-7 0 -8 6l-96 472l-93 -472q-2 -6 -8 -6h-205z" />
    <glyph glyph-name="X" unicode="X" horiz-adv-x="672" 
d="M8 0q-10 0 -4 8l227 337l-226 337q-6 8 4 8h168q4 0 8 -4l151 -240l151 240q4 4 9 4h167q8 0 4 -8l-227 -337l228 -337q6 -8 -4 -8h-167q-5 0 -9 4l-152 236l-152 -236q-4 -4 -8 -4h-168z" />
    <glyph glyph-name="Y" unicode="Y" horiz-adv-x="687" 
d="M273 0q-6 0 -6 7v262l-264 413q-3 8 5 8h159q7 0 8 -4l172 -276l165 276q3 4 8 4h160q7 0 4 -8l-264 -413v-262q0 -7 -7 -7h-140z" />
    <glyph glyph-name="Z" unicode="Z" horiz-adv-x="604" 
d="M587 586q0 -5 -3 -8l-365 -447h361q7 0 7 -7v-117q0 -7 -7 -7h-556q-7 0 -7 7v89q0 4 3 9l376 454h-350q-7 0 -7 7v117q0 7 7 7h534q7 0 7 -7v-97z" />
    <glyph glyph-name="bracketleft" unicode="[" horiz-adv-x="293" 
d="M71 -160q-7 0 -7 6v877q0 7 7 7h205q7 0 7 -7v-111q0 -6 -7 -6h-86v-640h86q7 0 7 -6v-114q0 -6 -7 -6h-205z" />
    <glyph glyph-name="backslash" unicode="\" horiz-adv-x="528" 
d="M359 -76q-5 0 -8 5l-308 752q-4 8 5 8h121q5 0 8 -6l308 -751q4 -8 -5 -8h-121z" />
    <glyph glyph-name="bracketright" unicode="]" horiz-adv-x="293" 
d="M20 -160q-10 0 -10 10v106q0 10 10 10h82v640h-82q-10 0 -10 10v104q0 10 10 10h198q10 0 10 -10v-870q0 -10 -10 -10h-198z" />
    <glyph glyph-name="asciicircum" unicode="^" horiz-adv-x="464" 
d="M12 294q-9 0 -4 8l220 379q5 8 8 0l220 -379q5 -8 -4 -8h-132q-5 0 -7 5l-81 155l-81 -155q-3 -5 -8 -5h-131z" />
    <glyph glyph-name="underscore" unicode="_" horiz-adv-x="429" 
d="M3 -111q-6 0 -6 6v98q0 7 6 7h423q7 0 7 -7v-98q0 -6 -7 -6h-423z" />
    <glyph glyph-name="grave" unicode="`" horiz-adv-x="192" 
d="M123 547q-5 0 -7 3l-142 108q-4 3 -3 5.5t5 2.5h133q5 0 8 -4l101 -108q5 -7 -3 -7h-92z" />
    <glyph glyph-name="a" unicode="a" horiz-adv-x="544" 
d="M199 -11q-75 0 -119.5 38t-44.5 108q0 101 104 143q38 16 110 28t93 21q20 10 20 27q0 57 -93 57q-91 0 -98 -55q0 -6 -7 -6h-119q-6 0 -6 6q1 79 65 122.5t166 43.5q100 0 162 -44t62 -136v-335q0 -7 -6 -7h-118q-7 0 -7 7v52q-66 -70 -164 -70zM239 98q69 0 111 59
q13 18 13 42v49q-31 -12 -79 -21t-65 -16q-52 -18 -52 -58q0 -55 72 -55z" />
    <glyph glyph-name="b" unicode="b" horiz-adv-x="619" 
d="M364 -11q-52 0 -95 22t-65 62v-66q0 -7 -7 -7h-133q-7 0 -7 7v676q0 7 7 7h136q7 0 7 -7v-239q25 37 67.5 57.5t91.5 20.5q102 0 160.5 -73t58.5 -193q0 -121 -59.5 -194t-161.5 -73zM317 114q118 0 118 143q0 69 -30.5 104.5t-87.5 35.5q-51 0 -82 -38t-31 -102
q0 -67 30.5 -105t82.5 -38z" />
    <glyph glyph-name="c" unicode="c" horiz-adv-x="574" 
d="M295 -11q-116 0 -189 69.5t-73 195.5q0 128 73 198t189 70q104 0 172.5 -56t76.5 -157q0 -7 -6 -7h-130q-6 0 -8 6q-14 89 -104 89q-51 0 -81.5 -34.5t-30.5 -108.5q0 -72 30.5 -106t81.5 -34q91 0 104 89q2 7 8 7h129q7 0 7 -7q-7 -102 -75.5 -158t-173.5 -56z" />
    <glyph glyph-name="d" unicode="d" horiz-adv-x="619" 
d="M255 -11q-102 0 -161.5 73t-59.5 194q0 120 58.5 193t160.5 73q49 0 91.5 -20.5t67.5 -57.5v239q0 7 7 7h136q7 0 7 -7v-676q0 -7 -7 -7h-133q-7 0 -7 7v66q-22 -40 -65 -62t-95 -22zM302 114q52 0 82.5 38t30.5 105q0 64 -31 102t-82 38q-57 0 -87.5 -35.5t-30.5 -104.5
q0 -143 118 -143z" />
    <glyph glyph-name="e" unicode="e" horiz-adv-x="546" 
d="M282 522q108 0 172 -69.5t64 -183.5q0 -23 -1 -40q-1 -7 -8 -7h-328q4 -57 32.5 -86.5t76.5 -29.5q73 0 88 61q2 6 8 6h115q9 0 7 -9q-15 -86 -76 -130t-146 -44q-109 0 -181 70t-72 192q0 124 65.5 197t183.5 73zM280 411q-90 0 -98 -95h193q-2 42 -25 68.5t-70 26.5z
" />
    <glyph glyph-name="f" unicode="f" horiz-adv-x="367" 
d="M106 0q-7 0 -7 7v403h-76q-7 0 -7 6v89q0 7 7 7h77v34q0 65 41 104.5t117 39.5h89q7 0 7 -7v-90q0 -6 -7 -6h-56q-42 0 -42 -46v-29h98q7 0 7 -7v-89q0 -6 -7 -6h-98v-403q0 -7 -7 -7h-136z" />
    <glyph glyph-name="g" unicode="g" horiz-adv-x="625" 
d="M553 512q7 0 7 -7v-472q0 -62 -20 -106.5t-55.5 -68.5t-78 -35t-93.5 -11q-52 0 -92.5 7t-79.5 24.5t-62.5 53t-27.5 87.5q0 7 7 7h137q5 0 6 -6q17 -69 110 -69q47 0 73.5 22.5t26.5 67.5v80q-17 -30 -57.5 -50t-95.5 -20q-100 0 -162.5 68t-62.5 187q0 118 63 184.5
t160 66.5q50 0 91.5 -20t62.5 -51v54q0 7 7 7h136zM301 133q55 0 85 35.5t30 95.5t-30 99t-86 39q-55 0 -85.5 -37.5t-30.5 -97.5t30.5 -97t86.5 -37z" />
    <glyph glyph-name="h" unicode="h" horiz-adv-x="602" 
d="M64 0q-7 0 -7 7v676q0 7 7 7h136q7 0 7 -7v-232q24 32 67.5 51.5t93.5 19.5q84 0 130 -51t46 -132v-332q0 -7 -6 -7h-136q-7 0 -7 7v305q0 42 -21.5 66t-62.5 24q-47 0 -75.5 -28.5t-28.5 -70.5v-296q0 -7 -7 -7h-136z" />
    <glyph glyph-name="i" unicode="i" horiz-adv-x="268" 
d="M64 576q-7 0 -7 7v100q0 7 7 7h141q6 0 6 -7v-100q0 -7 -6 -7h-141zM65 0q-6 0 -6 7v498q0 7 6 7h137q7 0 7 -7v-498q0 -7 -7 -7h-137z" />
    <glyph glyph-name="j" unicode="j" horiz-adv-x="273" 
d="M68 576q-6 0 -6 6v101q0 7 6 7h141q7 0 7 -7v-101q0 -6 -7 -6h-141zM-20 -178q-6 0 -6 7v103q0 7 6 7q42 2 63.5 25t21.5 57v484q0 7 6 7h137q6 0 6 -7v-480q0 -102 -57 -152t-177 -51z" />
    <glyph glyph-name="k" unicode="k" horiz-adv-x="578" 
d="M586 8q5 -8 -4 -8h-157q-5 0 -8 4l-138 216l-72 -71v-142q0 -7 -7 -7h-136q-7 0 -7 7v676q0 7 7 7h136q7 0 7 -7v-363l186 188q3 4 8 4h164q5 0 6 -2.5t-2 -5.5l-194 -190z" />
    <glyph glyph-name="l" unicode="l" horiz-adv-x="280" 
d="M71 0q-6 0 -6 7v676q0 7 6 7h137q7 0 7 -7v-676q0 -7 -7 -7h-137z" />
    <glyph glyph-name="m" unicode="m" horiz-adv-x="867" 
d="M64 0q-7 0 -7 7v498q0 7 7 7h134q6 0 6 -7v-53q54 70 145 70q98 0 133 -76q51 76 157 76q81 0 125.5 -50.5t44.5 -137.5v-327q0 -7 -7 -7h-136q-7 0 -7 7v313q0 81 -72 81q-40 0 -60 -26.5t-20 -71.5v-296q0 -7 -7 -7h-136q-7 0 -7 7v313q0 81 -70 81q-40 0 -60 -26.5
t-20 -71.5v-296q0 -7 -7 -7h-136z" />
    <glyph glyph-name="n" unicode="n" horiz-adv-x="602" 
d="M64 0q-7 0 -7 7v498q0 7 7 7h134q7 0 7 -7v-54q60 71 162 71q80 0 128.5 -50.5t48.5 -132.5v-332q0 -7 -6 -7h-136q-7 0 -7 7v291q0 102 -85 102q-47 0 -75 -29t-28 -82v-282q0 -7 -7 -7h-136z" />
    <glyph glyph-name="o" unicode="o" horiz-adv-x="590" 
d="M295 -11q-116 0 -189 69.5t-73 195.5q0 128 73 198t189 70q117 0 189.5 -70t72.5 -198q0 -126 -73 -195.5t-189 -69.5zM296 114q112 0 112 140q0 143 -112 143q-51 0 -81.5 -34.5t-30.5 -108.5q0 -72 30.5 -106t81.5 -34z" />
    <glyph glyph-name="p" unicode="p" horiz-adv-x="618" 
d="M64 -178q-7 0 -7 7v676q0 7 7 7h136q6 0 6 -7v-62q25 37 67.5 58t93.5 21q98 0 158 -73.5t60 -192.5q0 -120 -60.5 -193.5t-159.5 -73.5q-54 0 -97.5 22.5t-63.5 62.5v-245q0 -7 -7 -7h-133zM317 113q55 0 86 36t31 109q0 68 -31 104t-86 36q-52 0 -83.5 -37.5
t-31.5 -102.5q0 -69 31.5 -107t83.5 -38z" />
    <glyph glyph-name="q" unicode="q" horiz-adv-x="618" 
d="M555 -178h-134q-6 0 -6 7v245q-20 -40 -64 -62.5t-98 -22.5q-98 0 -159 73.5t-61 193.5q0 119 60 192.5t158 73.5q51 0 93.5 -21t67.5 -58v62q0 7 6 7h137q6 0 6 -7v-676q0 -7 -6 -7zM301 113q53 0 84 38t31 107q0 65 -31.5 102.5t-83.5 37.5q-55 0 -86 -36t-31 -104
q0 -73 31 -109t86 -36z" />
    <glyph glyph-name="r" unicode="r" horiz-adv-x="378" 
d="M64 0q-7 0 -7 7v498q0 7 7 7h131q7 0 7 -7v-59q32 74 113 74q18 0 46 -7q5 -1 5 -8v-120q0 -6 -5 -6h-15q-22 7 -46 7q-43 0 -68 -29.5t-25 -80.5v-269q0 -7 -7 -7h-136z" />
    <glyph glyph-name="s" unicode="s" horiz-adv-x="496" 
d="M260 -10q-112 0 -167 44q-58 42 -62 132q0 7 7 7h117q6 0 6 -7q3 -36 25 -54q25 -22 73 -19q28 0 47 13.5t19 38.5q0 26 -22.5 38t-77.5 25q-4 1 -6 1q-34 8 -51.5 13t-45 17t-42 26.5t-25.5 39t-11 55.5q0 80 57 121t144 41q79 0 134 -32q76 -43 79 -134q0 -6 -7 -6
h-111q-6 0 -6 6q-3 34 -23 49q-21 15 -59 15q-30 0 -50 -12.5t-20 -34.5q0 -8 2.5 -14t9.5 -10.5t13.5 -8t19.5 -7.5t22.5 -6.5t28 -7.5t31.5 -8q37 -10 61 -19.5t49 -26.5t37 -44t12 -64q0 -82 -56.5 -124.5t-151.5 -42.5z" />
    <glyph glyph-name="t" unicode="t" horiz-adv-x="358" 
d="M200 0q-57 0 -88.5 34.5t-31.5 95.5v280h-64q-7 0 -7 6v89q0 7 7 7h64v131q0 7 6 7h136q7 0 7 -7v-131h98q6 0 6 -7v-89q0 -6 -6 -6h-98v-243q0 -28 10 -39.5t33 -11.5h55q6 0 6 -6v-103q0 -7 -6 -7h-127z" />
    <glyph glyph-name="u" unicode="u" horiz-adv-x="602" 
d="M242 -13q-84 0 -134 53t-50 134v331q0 7 7 7h136q7 0 7 -7v-293q0 -97 90 -97q47 0 72.5 28.5t25.5 76.5v285q0 7 6 7h137q6 0 6 -7v-498q0 -7 -6 -7h-134q-7 0 -7 7v55q-53 -75 -156 -75z" />
    <glyph glyph-name="v" unicode="v" horiz-adv-x="574" 
d="M563 512q7 0 5 -8l-191 -499q-3 -5 -8 -5h-164q-6 0 -8 5l-191 499q-2 8 5 8h149q5 0 7 -5l120 -378l120 378q3 5 8 5h148z" />
    <glyph glyph-name="w" unicode="w" horiz-adv-x="828" 
d="M818 512q7 0 5 -8l-132 -498q-1 -6 -7 -6h-184q-5 0 -7 5l-81 317l-78 -319q-1 -5 -7 -5h-184q-5 0 -7 5l-131 501q-2 8 6 8h145q6 0 8 -6l79 -379l101 380q2 5 7 5h125q4 0 7 -5l100 -383l82 382q1 6 7 6h146z" />
    <glyph glyph-name="x" unicode="x" horiz-adv-x="578" 
d="M12 0q-9 0 -5 9l184 249l-184 245q-5 9 5 9h152q6 0 9 -4l117 -163l115 163q4 4 9 4h152q10 0 5 -9l-184 -245l184 -249q7 -9 -5 -9h-152q-5 0 -9 4l-115 167l-117 -167q-3 -4 -9 -4h-152z" />
    <glyph glyph-name="y" unicode="y" horiz-adv-x="528" 
d="M48 -178q-7 0 -7 7v104q0 7 7 7q64 0 95.5 14.5t49.5 45.5l-196 504q-2 8 5 8h147q5 0 8 -5l106 -342l111 342q2 5 7 5h148q7 0 5 -8l-201 -513q-40 -101 -98.5 -134.5t-186.5 -34.5z" />
    <glyph glyph-name="z" unicode="z" horiz-adv-x="495" 
d="M468 406q0 -5 -3 -8l-250 -280h245q6 0 6 -7v-104q0 -7 -6 -7h-427q-6 0 -6 7v93q0 5 3 8l262 287h-256q-7 0 -7 7v103q0 7 7 7h425q7 0 7 -7v-99z" />
    <glyph glyph-name="braceleft" unicode="{" horiz-adv-x="343" 
d="M233 -207q-67 0 -101.5 41t-34.5 114v201q0 30 -14.5 44.5t-43.5 18.5q-6 0 -6 7v92q0 6 6 6q29 4 43.5 18.5t14.5 44.5v201q0 73 34.5 114t101.5 41l77 -5q6 0 6 -7v-99q0 -7 -7 -6q-78 16 -78 -55v-194q0 -42 -14 -64.5t-46 -40.5q32 -19 46 -41.5t14 -64.5v-194
q0 -71 78 -55q7 1 7 -5v-100q0 -7 -6 -7z" />
    <glyph glyph-name="bar" unicode="|" horiz-adv-x="261" 
d="M82 -76q-6 0 -6 7v812q0 7 6 7h97q6 0 6 -7v-812q0 -7 -6 -7h-97z" />
    <glyph glyph-name="braceright" unicode="}" horiz-adv-x="336" 
d="M110 -207l-77 5q-6 0 -6 7v100q0 6 7 5q78 -16 78 55v194q0 42 14 64.5t46 41.5q-32 18 -46 40.5t-14 64.5v194q0 71 -78 55q-7 -1 -7 6v99q0 7 6 7l77 5q67 0 101.5 -41t34.5 -114v-201q0 -55 58 -63q6 0 6 -6v-92q0 -7 -6 -7q-58 -8 -58 -63v-201q0 -73 -34.5 -114
t-101.5 -41z" />
    <glyph glyph-name="asciitilde" unicode="~" horiz-adv-x="638" 
d="M442 197q-34 0 -63 12.5t-50 29.5t-39.5 34.5t-38.5 30t-40 12.5q-54 0 -48 -93q0 -7 -7 -7h-85q-7 0 -7 7q-2 86 37 138.5t109 52.5q41 0 73.5 -12t53 -29.5t37.5 -35t35 -29.5t37 -12q32 0 44.5 25t12.5 82q0 6 7 6h90q6 0 6 -8q2 -95 -41.5 -149.5t-122.5 -54.5z" />
    <glyph glyph-name="exclamdown" unicode="&#xa1;" horiz-adv-x="294" 
d="M81 362q-10 0 -10 10v130q0 10 10 10h132q10 0 10 -10v-130q0 -10 -10 -10h-132zM87 -186q-10 0 -10 10l14 455q0 10 10 10h92q10 0 10 -10l14 -455q0 -10 -10 -10h-120z" />
    <glyph glyph-name="cent" unicode="&#xa2;" horiz-adv-x="574" 
d="M537 210q7 0 7 -7q-6 -86 -57 -140t-132 -69v-95q0 -7 -7 -7h-100q-7 0 -7 7v94q-94 16 -151 83.5t-57 177.5q0 112 57 180t151 84v95q0 7 7 7h100q7 0 7 -7v-96q81 -16 131.5 -69.5t57.5 -138.5q0 -7 -6 -7h-130q-6 0 -8 6q-14 89 -104 89q-51 0 -81.5 -34.5
t-30.5 -108.5q0 -72 30.5 -106t81.5 -34q91 0 104 89q2 7 8 7h129z" />
    <glyph glyph-name="sterling" unicode="&#xa3;" horiz-adv-x="581" 
d="M43 0q-6 0 -6 7v110q0 5 5 8q25 5 37.5 8.5t34.5 15.5t32.5 35.5t10.5 58.5q0 27 -9 45h-102q-7 0 -7 6v104q0 6 7 6h76q-17 51 -17 98q0 101 61.5 153t154.5 52q94 0 150 -53t67 -137q2 -7 -6 -7h-120q-7 0 -7 6q-4 38 -29.5 56.5t-62.5 18.5q-87 0 -87 -97
q0 -43 17 -90h171q6 0 6 -6v-104q0 -6 -6 -6h-144q2 -24 2 -41q0 -35 -5 -61t-12.5 -38.5t-15 -20t-12.5 -9.5l-5 -1h346q7 0 7 -6v-104q0 -7 -7 -7h-525z" />
    <glyph glyph-name="currency" unicode="&#xa4;" horiz-adv-x="691" 
d="M166 8q-6 -6 -10 -1l-106 98q-4 5 0 9l94 93q-25 41 -25 99q0 59 25 97l-102 88q-5 4 -1 10l106 97q5 5 10 -1l76 -90q47 28 107 28q61 0 106 -28l76 92q3 5 9 0l105 -98q5 -5 0 -9l-101 -89q25 -39 25 -97q0 -57 -25 -99l93 -93q4 -4 0 -9l-108 -97q-5 -6 -9 0l-67 99
q-40 -28 -104 -28t-104 28zM339 207q42 2 65.5 28t23.5 72t-23.5 72t-65.5 28q-42 -2 -64.5 -28t-22.5 -72t22.5 -72t64.5 -28z" />
    <glyph glyph-name="yen" unicode="&#xa5;" horiz-adv-x="688" 
d="M289 0q-7 0 -7 7v73h-139q-6 0 -6 6v84q0 7 6 7h139v68h-139q-6 0 -6 6v87q0 6 6 6h86l-226 338q-4 8 5 8h137q5 0 7 -4l190 -313l193 313q4 4 8 4h137q10 0 4 -8l-226 -340h86q7 0 7 -7v-84q0 -6 -7 -6h-139v-68h139q7 0 7 -7v-84q0 -6 -7 -6h-139v-73q0 -7 -6 -7h-110z
" />
    <glyph glyph-name="brokenbar" unicode="&#xa6;" horiz-adv-x="279" 
d="M82 376q-6 0 -6 6v301q0 7 6 7h115q7 0 7 -7v-301q0 -6 -7 -6h-115zM82 -76q-6 0 -6 7v278q0 7 6 7h115q7 0 7 -7v-278q0 -7 -7 -7h-115z" />
    <glyph glyph-name="section" unicode="&#xa7;" horiz-adv-x="558" 
d="M287 -9q-213 0 -223 174q0 7 6 7h123q5 0 7 -6q15 -65 96 -65q79 0 79 52q0 24 -30 36.5t-73 19t-86 17t-73 40.5t-30 80q0 67 49 106q-48 36 -48 98q0 75 53.5 112.5t148.5 37.5q78 0 134.5 -38.5t68.5 -122.5q1 -6 -6 -6h-112q-7 0 -8 6q-7 57 -81 57q-77 0 -77 -49
q0 -24 30 -36.5t73 -19t86 -18t73 -43t30 -83.5q0 -65 -45 -104q45 -33 45 -91q0 -83 -58 -122t-152 -39zM344 301q16 9 21 25t-4 31q-4 11 -12 19.5t-25.5 15t-25.5 9t-34 7t-29 5.5q-14 -9 -21 -24t-1 -30q3 -12 11 -20.5t24 -14.5t26.5 -8.5t35.5 -7.5t34 -7z" />
    <glyph glyph-name="dieresis" unicode="&#xa8;" horiz-adv-x="329" 
d="M20 551q-6 0 -6 6v102q0 7 6 7h98q6 0 6 -7v-102q0 -6 -6 -6h-98zM211 551q-7 0 -7 6v102q0 7 7 7h97q7 0 7 -7v-102q0 -6 -7 -6h-97z" />
    <glyph glyph-name="copyright" unicode="&#xa9;" horiz-adv-x="812" 
d="M406 -31q-155 0 -266.5 111t-111.5 266t111.5 266t266.5 111t266.5 -111t111.5 -266t-111.5 -266t-266.5 -111zM406 31q130 0 223.5 92.5t93.5 222.5t-93.5 223t-223.5 93t-223.5 -93t-93.5 -223t93.5 -222.5t223.5 -92.5zM411 118q-100 0 -153 66t-53 160t53 160t151 66
q76 0 128 -43t58 -136q0 -7 -6 -7h-98q-5 0 -7 6q-5 65 -77 65q-89 0 -89 -112q0 -109 88 -109q72 0 78 66q0 6 6 6h99q8 0 6 -10q-7 -87 -60 -132.5t-124 -45.5z" />
    <glyph glyph-name="ordfeminine" unicode="&#xaa;" horiz-adv-x="366" 
d="M136 353q-51 0 -82 26t-31 74q0 68 71 98q27 11 76 19t63 14q13 6 13 19q0 39 -63 39q-61 0 -67 -38q0 -4 -4 -4h-82q-4 0 -4 4q1 54 44.5 84t113.5 30q68 0 110.5 -30.5t42.5 -93.5v-229q0 -4 -4 -4h-81q-5 0 -5 4v36q-45 -48 -111 -48zM162 428q48 0 76 41q9 11 9 28
v33q-21 -8 -53.5 -14.5t-44.5 -10.5q-36 -13 -36 -39q0 -38 49 -38z" />
    <glyph glyph-name="guillemotleft" unicode="&#xab;" horiz-adv-x="555" 
d="M269 102q0 -4 -2.5 -5.5t-5.5 1.5l-216 196q-4 5 0 10l216 196q3 3 5.5 2t2.5 -5v-109q0 -4 -4 -8l-82 -81l82 -80q4 -4 4 -8v-109zM515 102q0 -4 -2.5 -5.5t-5.5 1.5l-215 196q-5 5 0 10l215 196q3 3 5.5 2t2.5 -5v-109q0 -5 -4 -8l-82 -81l82 -80q4 -3 4 -8v-109z" />
    <glyph glyph-name="registered" unicode="&#xae;" horiz-adv-x="633" 
d="M316 172q-107 0 -182.5 77t-75.5 187t75.5 187t182.5 77t183 -77.5t76 -186.5t-76 -186.5t-183 -77.5zM316 229q84 0 144.5 61t60.5 146t-60.5 146.5t-144.5 61.5t-144 -61.5t-60 -146.5t60 -146t144 -61zM233 305q-7 0 -7 7v250q0 7 7 7h99q44 0 68.5 -22t24.5 -61
q0 -51 -47 -77l63 -96q6 -8 -4 -8h-64q-6 0 -7 4l-51 91h-20v-88q0 -7 -6 -7h-56zM292 459h40q29 0 29 27q0 26 -29 26h-40v-53z" />
    <glyph glyph-name="macron" unicode="&#xaf;" horiz-adv-x="316" 
d="M26 575q-6 0 -6 7v63q0 6 6 6h269q7 0 7 -6v-63q0 -7 -7 -7h-269z" />
    <glyph glyph-name="degree" unicode="&#xb0;" horiz-adv-x="392" 
d="M197 371q-74 0 -121.5 46.5t-47.5 118.5q0 71 47.5 117.5t121.5 46.5q73 0 120 -46.5t47 -117.5q0 -72 -47 -118.5t-120 -46.5zM197 470q29 0 48 18.5t19 47.5q0 28 -19 46.5t-48 18.5q-31 0 -50 -18t-19 -47t19 -47.5t50 -18.5z" />
    <glyph glyph-name="plusminus" unicode="&#xb1;" horiz-adv-x="673" 
d="M287 52q-6 0 -6 7v190h-217q-6 0 -6 6v100q0 6 6 6h217v218q0 7 6 7h99q6 0 6 -7v-218h217q6 0 6 -6v-100q0 -6 -6 -6h-217v-190q0 -7 -6 -7h-99zM65 -111q-6 0 -6 6v98q0 7 6 7h543q6 0 6 -7v-98q0 -6 -6 -6h-543z" />
    <glyph glyph-name="acute" unicode="&#xb4;" horiz-adv-x="192" 
d="M-22 547q-9 0 -3 8l100 107q3 4 9 4h132q4 0 5 -2.5t-3 -5.5l-144 -108q-3 -3 -8 -3h-88z" />
    <glyph glyph-name="uni00B5" unicode="&#xb5;" horiz-adv-x="519" 
d="M66 -130q-6 0 -6 7v604q0 7 6 7h120q6 0 6 -7v-275q0 -93 73 -93q45 0 81 31.5t36 73.5v263q0 7 6 7h120q6 0 6 -7v-474q0 -7 -6 -7h-120q-6 0 -6 7v47q-53 -65 -125 -65q-30 0 -67 7l-8 -119q0 -7 -7 -7h-109z" />
    <glyph glyph-name="paragraph" unicode="&#xb6;" horiz-adv-x="587" 
d="M264 -140q-6 0 -6 7v437q-90 0 -155.5 52.5t-65.5 140.5t65.5 140.5t155.5 52.5h81q6 0 6 -7v-816q0 -7 -6 -7h-75zM440 -140q-7 0 -7 7v816q0 7 7 7h75q7 0 7 -7v-816q0 -7 -7 -7h-75z" />
    <glyph glyph-name="periodcentered" unicode="&#xb7;" horiz-adv-x="250" 
d="M127 304q-35 0 -58 23t-23 55q0 35 23 58t58 23q32 0 54.5 -23t22.5 -58q0 -32 -22.5 -55t-54.5 -23z" />
    <glyph glyph-name="cedilla" unicode="&#xb8;" horiz-adv-x="178" 
d="M99 -244q-39 0 -69 18t-44 47q-3 5 3 9l57 26q6 3 9 -4q9 -24 37 -24q31 0 34 30q5 29 -30 39l-71 20q-7 3 -4 9l43 74h100l-40 -56q83 -21 83 -89q0 -47 -32 -73t-76 -26z" />
    <glyph glyph-name="ordmasculine" unicode="&#xba;" horiz-adv-x="401" 
d="M203 349q-81 0 -132.5 51.5t-51.5 125.5t51.5 125t132.5 51q78 0 128.5 -51.5t50.5 -124.5q0 -74 -50.5 -125.5t-128.5 -51.5zM203 431q42 0 62.5 25.5t20.5 67.5q0 41 -20.5 66.5t-62.5 25.5q-45 0 -66.5 -25.5t-21.5 -66.5q0 -42 21.5 -67.5t66.5 -25.5z" />
    <glyph glyph-name="guillemotright" unicode="&#xbb;" horiz-adv-x="563" 
d="M55 98q-3 -3 -5.5 -1.5t-2.5 5.5v109q0 4 4 8l82 80l-82 81q-4 4 -4 8v109q0 4 2.5 5t5.5 -2l216 -196q4 -5 0 -10zM301 98q-7 -7 -7 4v109q0 5 3 8l82 80l-82 81q-3 3 -3 8v109q0 10 7 3l216 -196q4 -6 0 -10z" />
    <glyph glyph-name="questiondown" unicode="&#xbf;" horiz-adv-x="485" 
d="M326 512q6 0 6 -7v-137q0 -6 -6 -6h-133q-6 0 -6 6v137q0 7 6 7h133zM314 291q6 0 6 -6v-61q0 -35 -12 -60.5t-25 -36.5t-37 -27q-4 -3 -13 -8.5t-13 -8.5t-11.5 -9t-11 -10t-8.5 -10.5t-7.5 -13t-4 -15t-1.5 -18.5q0 -34 21.5 -54.5t59.5 -20.5q42 0 63.5 22.5
t23.5 60.5q2 7 7 7h110q7 0 7 -7q-3 -88 -55 -145.5t-151 -57.5q-88 0 -148 47.5t-60 142.5q0 32 5.5 56t19 41t22.5 25t30 21t26 17q16 12 23 18t13.5 18t6.5 27v60q0 6 6 6h108z" />
    <glyph glyph-name="Agrave" unicode="&#xc0;" horiz-adv-x="682" 
d="M143 859q-4 3 -3 5.5t5 2.5h133q5 0 8 -4l101 -108q5 -7 -3 -7h-92q-4 0 -7 3zM679 10q2 -10 -7 -10h-151q-4 0 -6 4l-47 150h-254l-47 -150q-2 -4 -5 -4h-152q-11 0 -7 10l235 676q1 4 6 4h193q5 0 6 -4zM253 277h177l-86 274h-4z" />
    <glyph glyph-name="Aacute" unicode="&#xc1;" horiz-adv-x="682" 
d="M301 748q-9 0 -3 8l100 107q3 4 9 4h132q4 0 5 -2.5t-3 -5.5l-144 -108q-4 -3 -8 -3h-88zM679 10q2 -10 -7 -10h-151q-4 0 -6 4l-47 150h-254l-47 -150q-2 -4 -5 -4h-152q-11 0 -7 10l235 676q1 4 6 4h193q5 0 6 -4zM253 277h177l-86 274h-4z" />
    <glyph glyph-name="Acircumflex" unicode="&#xc2;" horiz-adv-x="682" 
d="M191 738q-9 0 -3 8l106 114q1 4 8 4h77q5 0 8 -4l106 -114q6 -8 -3 -8h-96q-4 0 -8 4l-42 54q-3 7 -8 0l-41 -54q-4 -4 -8 -4h-96zM679 10q2 -10 -7 -10h-151q-4 0 -6 4l-47 150h-254l-47 -150q-2 -4 -5 -4h-152q-11 0 -7 10l235 676q1 4 6 4h193q5 0 6 -4zM253 277h177
l-86 274h-4z" />
    <glyph glyph-name="Atilde" unicode="&#xc3;" horiz-adv-x="682" 
d="M162 735q-6 0 -6 7q3 126 107 126q34 0 59.5 -14t45 -28.5t38.5 -14.5q35 0 38 50q0 6 6 6h71q7 0 7 -6q-3 -128 -107 -128q-33 0 -59 15t-45.5 30t-37.5 15q-33 0 -36 -51q0 -7 -7 -7h-74zM679 10q2 -10 -7 -10h-151q-4 0 -6 4l-47 150h-254l-47 -150q-2 -4 -5 -4h-152
q-11 0 -7 10l235 676q1 4 6 4h193q5 0 6 -4zM253 277h177l-86 274h-4z" />
    <glyph glyph-name="Adieresis" unicode="&#xc4;" horiz-adv-x="682" 
d="M196 752q-6 0 -6 6v102q0 7 6 7h98q6 0 6 -7v-102q0 -6 -6 -6h-98zM387 752q-7 0 -7 6v102q0 7 7 7h97q7 0 7 -7v-102q0 -6 -7 -6h-97zM679 10q2 -10 -7 -10h-151q-4 0 -6 4l-47 150h-254l-47 -150q-2 -4 -5 -4h-152q-11 0 -7 10l235 676q1 4 6 4h193q5 0 6 -4zM253 277
h177l-86 274h-4z" />
    <glyph glyph-name="Aring" unicode="&#xc5;" horiz-adv-x="682" 
d="M679 10q2 -10 -7 -10h-151q-4 0 -6 4l-47 150h-254l-47 -150q-2 -4 -5 -4h-152q-11 0 -7 10l232 666q-21 32 -21 71q0 52 36.5 89.5t89.5 37.5t90.5 -37t37.5 -90q0 -38 -21 -72zM340 804q-25 0 -41 -15.5t-16 -39.5q0 -23 13 -39t33 -20h23q21 4 33.5 20t12.5 39
q0 25 -15.5 40t-42.5 15zM253 277h177l-86 274h-4z" />
    <glyph glyph-name="AE" unicode="&#xc6;" horiz-adv-x="885" 
d="M833 552h-317v-138h274q6 0 6 -6v-125q0 -6 -6 -6h-274v-140h317q7 0 7 -7v-123q0 -7 -7 -7h-451q-6 0 -6 7v137h-171l-54 -139q-2 -5 -8 -5h-135q-9 0 -5 8l277 677q2 5 8 5h545q7 0 7 -7v-124q0 -7 -7 -7zM253 267h123v309h-3z" />
    <glyph glyph-name="Ccedilla" unicode="&#xc7;" horiz-adv-x="662" 
d="M629 266q6 0 6 -8q-6 -117 -72 -184t-169 -80l-35 -50q83 -21 83 -89q0 -47 -32 -73t-76 -26q-39 0 -69 18t-44 47q-3 5 3 9l57 26q6 3 9 -4q9 -24 37 -24q31 0 34 30q5 29 -30 39l-71 20q-7 3 -4 9l39 67q-135 16 -201 115t-66 238q0 71 18 133t54 112.5t98 80t143 29.5
q124 0 206 -68.5t88 -200.5q0 -7 -6 -7h-131q-6 0 -6 6q-8 64 -46.5 100t-102.5 36q-77 0 -120.5 -58t-43.5 -162q0 -106 43.5 -164.5t121.5 -58.5q61 0 100.5 36.5t47.5 99.5q0 6 6 6h131z" />
    <glyph glyph-name="Egrave" unicode="&#xc8;" horiz-adv-x="586" 
d="M257 748q-4 0 -7 3l-142 108q-4 3 -3 5.5t5 2.5h133q5 0 8 -4l101 -108q5 -7 -3 -7h-92zM79 0q-7 0 -7 7v676q0 7 7 7h455q7 0 7 -7v-117q0 -7 -7 -7h-307v-148h278q7 0 7 -7v-117q0 -7 -7 -7h-278v-149h307q7 0 7 -6v-118q0 -7 -7 -7h-455z" />
    <glyph glyph-name="Eacute" unicode="&#xc9;" horiz-adv-x="586" 
d="M267 748q-9 0 -3 8l100 107q3 4 9 4h132q4 0 5 -2.5t-3 -5.5l-144 -108q-4 -3 -8 -3h-88zM79 0q-7 0 -7 7v676q0 7 7 7h455q7 0 7 -7v-117q0 -7 -7 -7h-307v-148h278q7 0 7 -7v-117q0 -7 -7 -7h-278v-149h307q7 0 7 -6v-118q0 -7 -7 -7h-455z" />
    <glyph glyph-name="Ecircumflex" unicode="&#xca;" horiz-adv-x="586" 
d="M157 738q-9 0 -3 8l106 114q1 4 8 4h77q5 0 8 -4l106 -114q6 -8 -3 -8h-96q-4 0 -8 4l-42 54q-3 7 -8 0l-41 -54q-4 -4 -8 -4h-96zM79 0q-7 0 -7 7v676q0 7 7 7h455q7 0 7 -7v-117q0 -7 -7 -7h-307v-148h278q7 0 7 -7v-117q0 -7 -7 -7h-278v-149h307q7 0 7 -6v-118
q0 -7 -7 -7h-455z" />
    <glyph glyph-name="Edieresis" unicode="&#xcb;" horiz-adv-x="586" 
d="M162 752q-6 0 -6 6v102q0 7 6 7h98q6 0 6 -7v-102q0 -6 -6 -6h-98zM353 752q-7 0 -7 6v102q0 7 7 7h97q7 0 7 -7v-102q0 -6 -7 -6h-97zM79 0q-7 0 -7 7v676q0 7 7 7h455q7 0 7 -7v-117q0 -7 -7 -7h-307v-148h278q7 0 7 -7v-117q0 -7 -7 -7h-278v-149h307q7 0 7 -6v-118
q0 -7 -7 -7h-455z" />
    <glyph glyph-name="Igrave" unicode="&#xcc;" horiz-adv-x="299" 
d="M100 748q-4 0 -7 3l-142 108q-4 3 -3 5.5t5 2.5h133q5 0 8 -4l101 -108q5 -7 -3 -7h-92zM79 0q-7 0 -7 7v676q0 7 7 7h141q7 0 7 -7v-676q0 -7 -7 -7h-141z" />
    <glyph glyph-name="Iacute" unicode="&#xcd;" horiz-adv-x="299" 
d="M110 748q-9 0 -3 8l100 107q3 4 9 4h132q4 0 5 -2.5t-3 -5.5l-144 -108q-4 -3 -8 -3h-88zM79 0q-7 0 -7 7v676q0 7 7 7h141q7 0 7 -7v-676q0 -7 -7 -7h-141z" />
    <glyph glyph-name="Icircumflex" unicode="&#xce;" horiz-adv-x="299" 
d="M0 738q-9 0 -3 8l106 114q1 4 8 4h77q5 0 8 -4l106 -114q6 -8 -3 -8h-96q-4 0 -8 4l-42 54q-3 7 -8 0l-41 -54q-4 -4 -8 -4h-96zM79 0q-7 0 -7 7v676q0 7 7 7h141q7 0 7 -7v-676q0 -7 -7 -7h-141z" />
    <glyph glyph-name="Idieresis" unicode="&#xcf;" horiz-adv-x="299" 
d="M5 752q-6 0 -6 6v102q0 7 6 7h98q6 0 6 -7v-102q0 -6 -6 -6h-98zM196 752q-7 0 -7 6v102q0 7 7 7h97q7 0 7 -7v-102q0 -6 -7 -6h-97zM79 0q-7 0 -7 7v676q0 7 7 7h141q7 0 7 -7v-676q0 -7 -7 -7h-141z" />
    <glyph glyph-name="Eth" unicode="&#xd0;" horiz-adv-x="677" 
d="M72 0q-7 0 -7 7v292h-55q-7 0 -7 6v86q0 6 7 6h55v286q0 7 7 7h199q180 0 277.5 -90.5t97.5 -259.5q0 -162 -98.5 -251t-277.5 -89h-198zM201 128h57q251 0 251 217q0 112 -57 165t-183 53h-68v-166h169q7 0 7 -6v-86q0 -6 -7 -6h-169v-171z" />
    <glyph glyph-name="Ntilde" unicode="&#xd1;" horiz-adv-x="759" 
d="M200 736q-6 0 -6 7q3 126 107 126q34 0 59.5 -14.5t45 -28.5t38.5 -14q35 0 38 50q0 6 6 6h71q7 0 7 -6q-3 -128 -107 -128q-33 0 -59 15t-45.5 30t-37.5 15q-33 0 -36 -51q0 -7 -7 -7h-74zM79 0q-7 0 -7 7v676q0 7 7 7h150q4 0 8 -4l290 -459h5v456q0 7 6 7h142
q6 0 6 -7v-676q0 -7 -6 -7h-152q-6 0 -8 4l-288 456h-5v-453q0 -7 -7 -7h-141z" />
    <glyph glyph-name="Ograve" unicode="&#xd2;" horiz-adv-x="721" 
d="M312 749q-4 0 -7 3l-142 108q-4 3 -3 5.5t5 2.5h133q5 0 8 -4l101 -108q5 -7 -3 -7h-92zM358 -10q-155 0 -242.5 95.5t-87.5 259.5t87.5 259.5t242.5 95.5q158 0 246.5 -95.5t88.5 -259.5t-88.5 -259.5t-246.5 -95.5zM358 123q80 0 125.5 56.5t45.5 165.5
q0 113 -45 167.5t-126 54.5q-165 0 -165 -222q0 -109 43.5 -165.5t121.5 -56.5z" />
    <glyph glyph-name="Oacute" unicode="&#xd3;" horiz-adv-x="721" 
d="M321 749q-9 0 -3 8l100 107q3 4 9 4h132q4 0 5 -2.5t-3 -5.5l-144 -108q-4 -3 -8 -3h-88zM358 -10q-155 0 -242.5 95.5t-87.5 259.5t87.5 259.5t242.5 95.5q158 0 246.5 -95.5t88.5 -259.5t-88.5 -259.5t-246.5 -95.5zM358 123q80 0 125.5 56.5t45.5 165.5
q0 113 -45 167.5t-126 54.5q-165 0 -165 -222q0 -109 43.5 -165.5t121.5 -56.5z" />
    <glyph glyph-name="Ocircumflex" unicode="&#xd4;" horiz-adv-x="721" 
d="M211 739q-9 0 -3 8l106 114q1 4 8 4h77q5 0 8 -4l106 -114q6 -8 -3 -8h-96q-4 0 -8 4l-42 54q-3 7 -8 0l-41 -54q-4 -4 -8 -4h-96zM358 -10q-155 0 -242.5 95.5t-87.5 259.5t87.5 259.5t242.5 95.5q158 0 246.5 -95.5t88.5 -259.5t-88.5 -259.5t-246.5 -95.5zM358 123
q80 0 125.5 56.5t45.5 165.5q0 113 -45 167.5t-126 54.5q-165 0 -165 -222q0 -109 43.5 -165.5t121.5 -56.5z" />
    <glyph glyph-name="Otilde" unicode="&#xd5;" horiz-adv-x="721" 
d="M182 736q-6 0 -6 7q3 126 107 126q34 0 59.5 -14.5t45 -28.5t38.5 -14q35 0 38 50q0 6 6 6h71q7 0 7 -6q-3 -128 -107 -128q-33 0 -59 15t-45.5 30t-37.5 15q-33 0 -36 -51q0 -7 -7 -7h-74zM358 -10q-155 0 -242.5 95.5t-87.5 259.5t87.5 259.5t242.5 95.5
q158 0 246.5 -95.5t88.5 -259.5t-88.5 -259.5t-246.5 -95.5zM358 123q80 0 125.5 56.5t45.5 165.5q0 113 -45 167.5t-126 54.5q-165 0 -165 -222q0 -109 43.5 -165.5t121.5 -56.5z" />
    <glyph glyph-name="Odieresis" unicode="&#xd6;" horiz-adv-x="721" 
d="M216 753q-6 0 -6 6v102q0 7 6 7h98q6 0 6 -7v-102q0 -6 -6 -6h-98zM407 753q-7 0 -7 6v102q0 7 7 7h97q7 0 7 -7v-102q0 -6 -7 -6h-97zM358 -10q-155 0 -242.5 95.5t-87.5 259.5t87.5 259.5t242.5 95.5q158 0 246.5 -95.5t88.5 -259.5t-88.5 -259.5t-246.5 -95.5z
M358 123q80 0 125.5 56.5t45.5 165.5q0 113 -45 167.5t-126 54.5q-165 0 -165 -222q0 -109 43.5 -165.5t121.5 -56.5z" />
    <glyph glyph-name="multiply" unicode="&#xd7;" horiz-adv-x="491" 
d="M110 90q-5 -5 -9 0l-69 72q-4 4 0 9l134 135l-136 137q-6 4 0 10l69 68q4 4 10 0l136 -136l136 135q5 4 9 0l69 -72q3 -4 0 -9l-134 -134l137 -138q6 -4 0 -10l-68 -67q-5 -5 -10 -1l-138 137z" />
    <glyph glyph-name="Oslash" unicode="&#xd8;" horiz-adv-x="721" 
d="M632 571q61 -90 61 -226q0 -164 -88.5 -259.5t-246.5 -95.5q-141 0 -227 80l-43 -42q-4 -5 -9 0l-38 37q-4 4 0 10l46 46q-59 92 -59 224q0 164 87.5 259.5t242.5 95.5q142 0 230 -79l40 40q6 5 10 1l38 -37q4 -4 0 -10zM193 345q0 -58 14 -105l275 275q-43 52 -124 52
q-165 0 -165 -222zM358 123q80 0 125.5 56.5t45.5 165.5q0 64 -15 109l-276 -276q43 -55 120 -55z" />
    <glyph glyph-name="Ugrave" unicode="&#xd9;" horiz-adv-x="696" 
d="M299 748q-4 0 -7 3l-142 108q-4 3 -3 5.5t5 2.5h133q5 0 8 -4l101 -108q5 -7 -3 -7h-92zM346 -10q-138 0 -207.5 71t-69.5 201v421q0 7 6 7h142q6 0 6 -7v-426q0 -60 32 -93t91 -33q60 0 93.5 33t33.5 93v426q0 7 6 7h142q6 0 6 -7v-416q0 -133 -70.5 -205t-210.5 -72z
" />
    <glyph glyph-name="Uacute" unicode="&#xda;" horiz-adv-x="696" 
d="M308 748q-9 0 -3 8l100 107q3 4 9 4h132q4 0 5 -2.5t-3 -5.5l-144 -108q-4 -3 -8 -3h-88zM346 -10q-138 0 -207.5 71t-69.5 201v421q0 7 6 7h142q6 0 6 -7v-426q0 -60 32 -93t91 -33q60 0 93.5 33t33.5 93v426q0 7 6 7h142q6 0 6 -7v-416q0 -133 -70.5 -205t-210.5 -72z
" />
    <glyph glyph-name="Ucircumflex" unicode="&#xdb;" horiz-adv-x="696" 
d="M199 738q-9 0 -3 8l106 114q1 4 8 4h77q5 0 8 -4l106 -114q6 -8 -3 -8h-96q-4 0 -8 4l-42 54q-3 7 -8 0l-41 -54q-4 -4 -8 -4h-96zM346 -10q-138 0 -207.5 71t-69.5 201v421q0 7 6 7h142q6 0 6 -7v-426q0 -60 32 -93t91 -33q60 0 93.5 33t33.5 93v426q0 7 6 7h142
q6 0 6 -7v-416q0 -133 -70.5 -205t-210.5 -72z" />
    <glyph glyph-name="Udieresis" unicode="&#xdc;" horiz-adv-x="696" 
d="M204 752q-6 0 -6 6v102q0 7 6 7h98q6 0 6 -7v-102q0 -6 -6 -6h-98zM395 752q-7 0 -7 6v102q0 7 7 7h97q7 0 7 -7v-102q0 -6 -7 -6h-97zM346 -10q-138 0 -207.5 71t-69.5 201v421q0 7 6 7h142q6 0 6 -7v-426q0 -60 32 -93t91 -33q60 0 93.5 33t33.5 93v426q0 7 6 7h142
q6 0 6 -7v-416q0 -133 -70.5 -205t-210.5 -72z" />
    <glyph glyph-name="Yacute" unicode="&#xdd;" horiz-adv-x="687" 
d="M303 748q-9 0 -3 8l100 107q3 4 9 4h132q4 0 5 -2.5t-3 -5.5l-144 -108q-4 -3 -8 -3h-88zM273 0q-6 0 -6 7v262l-264 413q-3 8 5 8h159q7 0 8 -4l172 -276l165 276q3 4 8 4h160q7 0 4 -8l-264 -413v-262q0 -7 -7 -7h-140z" />
    <glyph glyph-name="Thorn" unicode="&#xde;" horiz-adv-x="609" 
d="M85 0q-13 0 -13 13v664q0 13 13 13h129q13 0 13 -13v-56h144q98 0 159 -58t61 -165q0 -103 -61.5 -159t-158.5 -56h-144v-170q0 -13 -13 -13h-129zM227 311h104q107 0 107 88q0 91 -107 91h-104v-179z" />
    <glyph glyph-name="germandbls" unicode="&#xdf;" horiz-adv-x="580" 
d="M356 -9q-29 0 -73 8q-5 3 -5 8v135q0 9 7 4q32 -18 66 -18q23 0 39 13.5t16 35.5q0 24 -20.5 43.5t-45 32.5t-45 39.5t-20.5 62.5q0 31 9.5 52.5t23.5 32.5t27.5 19.5t23 19.5t9.5 27q0 28 -19.5 45.5t-57.5 17.5q-42 0 -64 -23.5t-22 -62.5v-476q0 -7 -6 -7h-135
q-6 0 -6 7v475q0 103 63 160.5t162 57.5q100 0 166 -45t66 -125q0 -32 -10 -56t-24.5 -37.5t-29.5 -24t-25 -22t-10 -25.5q0 -16 14 -29.5t34.5 -27t41 -30t34.5 -46.5t14 -69q0 -76 -55.5 -124t-142.5 -48z" />
    <glyph glyph-name="agrave" unicode="&#xe0;" horiz-adv-x="544" 
d="M215 571q-4 0 -7 3l-142 108q-4 3 -3 5.5t5 2.5h133q5 0 8 -4l101 -108q5 -7 -3 -7h-92zM199 -11q-75 0 -119.5 38t-44.5 108q0 101 104 143q38 16 110 28t93 21q20 10 20 27q0 57 -93 57q-91 0 -98 -55q0 -6 -7 -6h-119q-6 0 -6 6q1 79 65 122.5t166 43.5q100 0 162 -44
t62 -136v-335q0 -7 -6 -7h-118q-7 0 -7 7v52q-66 -70 -164 -70zM239 98q69 0 111 59q13 18 13 42v49q-31 -12 -79 -21t-65 -16q-52 -18 -52 -58q0 -55 72 -55z" />
    <glyph glyph-name="aacute" unicode="&#xe1;" horiz-adv-x="544" 
d="M224 571q-9 0 -3 8l100 107q3 4 9 4h132q4 0 5 -2.5t-3 -5.5l-144 -108q-4 -3 -8 -3h-88zM199 -11q-75 0 -119.5 38t-44.5 108q0 101 104 143q38 16 110 28t93 21q20 10 20 27q0 57 -93 57q-91 0 -98 -55q0 -6 -7 -6h-119q-6 0 -6 6q1 79 65 122.5t166 43.5
q100 0 162 -44t62 -136v-335q0 -7 -6 -7h-118q-7 0 -7 7v52q-66 -70 -164 -70zM239 98q69 0 111 59q13 18 13 42v49q-31 -12 -79 -21t-65 -16q-52 -18 -52 -58q0 -55 72 -55z" />
    <glyph glyph-name="acircumflex" unicode="&#xe2;" horiz-adv-x="544" 
d="M114 561q-9 0 -3 8l106 114q1 4 8 4h77q5 0 8 -4l106 -114q6 -8 -3 -8h-96q-4 0 -8 4l-42 54q-3 7 -8 0l-41 -54q-4 -4 -8 -4h-96zM199 -11q-75 0 -119.5 38t-44.5 108q0 101 104 143q38 16 110 28t93 21q20 10 20 27q0 57 -93 57q-91 0 -98 -55q0 -6 -7 -6h-119
q-6 0 -6 6q1 79 65 122.5t166 43.5q100 0 162 -44t62 -136v-335q0 -7 -6 -7h-118q-7 0 -7 7v52q-66 -70 -164 -70zM239 98q69 0 111 59q13 18 13 42v49q-31 -12 -79 -21t-65 -16q-52 -18 -52 -58q0 -55 72 -55z" />
    <glyph glyph-name="atilde" unicode="&#xe3;" horiz-adv-x="544" 
d="M85 558q-6 0 -6 7q3 126 107 126q34 0 59.5 -14.5t45 -28.5t38.5 -14q35 0 38 50q0 6 6 6h71q7 0 7 -6q-3 -128 -107 -128q-33 0 -59 15t-45.5 30t-37.5 15q-33 0 -36 -51q0 -7 -7 -7h-74zM199 -11q-75 0 -119.5 38t-44.5 108q0 101 104 143q38 16 110 28t93 21
q20 10 20 27q0 57 -93 57q-91 0 -98 -55q0 -6 -7 -6h-119q-6 0 -6 6q1 79 65 122.5t166 43.5q100 0 162 -44t62 -136v-335q0 -7 -6 -7h-118q-7 0 -7 7v52q-66 -70 -164 -70zM239 98q69 0 111 59q13 18 13 42v49q-31 -12 -79 -21t-65 -16q-52 -18 -52 -58q0 -55 72 -55z" />
    <glyph glyph-name="adieresis" unicode="&#xe4;" horiz-adv-x="544" 
d="M120 575q-6 0 -6 6v102q0 7 6 7h98q6 0 6 -7v-102q0 -6 -6 -6h-98zM311 575q-7 0 -7 6v102q0 7 7 7h97q7 0 7 -7v-102q0 -6 -7 -6h-97zM199 -11q-75 0 -119.5 38t-44.5 108q0 101 104 143q38 16 110 28t93 21q20 10 20 27q0 57 -93 57q-91 0 -98 -55q0 -6 -7 -6h-119
q-6 0 -6 6q1 79 65 122.5t166 43.5q100 0 162 -44t62 -136v-335q0 -7 -6 -7h-118q-7 0 -7 7v52q-66 -70 -164 -70zM239 98q69 0 111 59q13 18 13 42v49q-31 -12 -79 -21t-65 -16q-52 -18 -52 -58q0 -55 72 -55z" />
    <glyph glyph-name="aring" unicode="&#xe5;" horiz-adv-x="544" 
d="M264 559q-47 0 -78.5 32.5t-31.5 78.5t31.5 78.5t78.5 32.5q46 0 78.5 -32.5t32.5 -78.5t-32.5 -78.5t-78.5 -32.5zM264 620q22 0 36 14.5t14 37.5q0 21 -13.5 34.5t-36.5 13.5q-22 0 -36 -13.5t-14 -34.5q0 -22 14.5 -37t35.5 -15zM199 -11q-75 0 -119.5 38t-44.5 108
q0 101 104 143q38 16 110 28t93 21q20 10 20 27q0 57 -93 57q-91 0 -98 -55q0 -6 -7 -6h-119q-6 0 -6 6q1 79 65 122.5t166 43.5q100 0 162 -44t62 -136v-335q0 -7 -6 -7h-118q-7 0 -7 7v52q-66 -70 -164 -70zM239 98q69 0 111 59q13 18 13 42v49q-31 -12 -79 -21t-65 -16
q-52 -18 -52 -58q0 -55 72 -55z" />
    <glyph glyph-name="ae" unicode="&#xe6;" horiz-adv-x="879" 
d="M608 522q108 0 172.5 -69.5t64.5 -183.5q0 -23 -2 -40q0 -7 -8 -7h-327q4 -57 32 -86.5t77 -29.5q71 0 88 61q1 6 7 6h116q8 0 7 -9q-16 -86 -77 -130t-146 -44q-121 0 -193 84q-101 -85 -220 -85q-74 0 -119 38t-45 104q0 94 102 144q79 38 197 41q13 2 21 10t6 20
q-6 70 -87 70q-95 0 -102 -69q-2 -6 -8 -6h-119q-6 0 -6 6q5 82 67.5 128.5t160.5 46.5q118 0 177 -55q64 55 164 55zM607 411q-90 0 -99 -95h194q-2 43 -25 69t-70 26zM258 96q60 3 115 64q-11 32 -12 69q-69 7 -118 -17q-51 -24 -51 -63q0 -25 18.5 -39t47.5 -14z" />
    <glyph glyph-name="ccedilla" unicode="&#xe7;" horiz-adv-x="574" 
d="M537 210q7 0 7 -7q-6 -86 -57 -140t-132 -69l-36 -50q83 -21 83 -89q0 -47 -32 -73t-76 -26q-39 0 -69 18t-44 47q-3 5 3 9l57 26q6 3 9 -4q9 -24 37 -24q31 0 34 30q5 29 -30 39l-71 20q-7 3 -4 9l38 65q-100 12 -160.5 80.5t-60.5 182.5q0 128 73 198t189 70
q104 0 172.5 -56t76.5 -157q0 -7 -6 -7h-130q-6 0 -8 6q-14 89 -104 89q-51 0 -81.5 -34.5t-30.5 -108.5q0 -72 30.5 -106t81.5 -34q91 0 104 89q2 7 8 7h129z" />
    <glyph glyph-name="egrave" unicode="&#xe8;" horiz-adv-x="546" 
d="M79 682q-4 3 -3 5.5t5 2.5h133q5 0 8 -4l101 -108q5 -7 -3 -7h-92q-4 0 -7 3zM282 522q108 0 172 -69.5t64 -183.5q0 -23 -1 -40q-1 -7 -8 -7h-328q4 -57 32.5 -86.5t76.5 -29.5q73 0 88 61q2 6 8 6h115q9 0 7 -9q-15 -86 -76 -130t-146 -44q-109 0 -181 70t-72 192
q0 124 65.5 197t183.5 73zM280 411q-90 0 -98 -95h193q-2 42 -25 68.5t-70 26.5z" />
    <glyph glyph-name="eacute" unicode="&#xe9;" horiz-adv-x="546" 
d="M238 571q-9 0 -3 8l100 107q3 4 9 4h132q4 0 5 -2.5t-3 -5.5l-144 -108q-4 -3 -8 -3h-88zM282 522q108 0 172 -69.5t64 -183.5q0 -23 -1 -40q-1 -7 -8 -7h-328q4 -57 32.5 -86.5t76.5 -29.5q73 0 88 61q2 6 8 6h115q9 0 7 -9q-15 -86 -76 -130t-146 -44q-109 0 -181 70
t-72 192q0 124 65.5 197t183.5 73zM280 411q-90 0 -98 -95h193q-2 42 -25 68.5t-70 26.5z" />
    <glyph glyph-name="ecircumflex" unicode="&#xea;" horiz-adv-x="546" 
d="M128 561q-9 0 -3 8l106 114q1 4 8 4h77q5 0 8 -4l106 -114q6 -8 -3 -8h-96q-4 0 -8 4l-42 54q-3 7 -8 0l-41 -54q-4 -4 -8 -4h-96zM282 522q108 0 172 -69.5t64 -183.5q0 -23 -1 -40q-1 -7 -8 -7h-328q4 -57 32.5 -86.5t76.5 -29.5q73 0 88 61q2 6 8 6h115q9 0 7 -9
q-15 -86 -76 -130t-146 -44q-109 0 -181 70t-72 192q0 124 65.5 197t183.5 73zM280 411q-90 0 -98 -95h193q-2 42 -25 68.5t-70 26.5z" />
    <glyph glyph-name="edieresis" unicode="&#xeb;" horiz-adv-x="546" 
d="M133 575q-6 0 -6 6v102q0 7 6 7h98q6 0 6 -7v-102q0 -6 -6 -6h-98zM324 575q-7 0 -7 6v102q0 7 7 7h97q7 0 7 -7v-102q0 -6 -7 -6h-97zM282 522q108 0 172 -69.5t64 -183.5q0 -23 -1 -40q-1 -7 -8 -7h-328q4 -57 32.5 -86.5t76.5 -29.5q73 0 88 61q2 6 8 6h115q9 0 7 -9
q-15 -86 -76 -130t-146 -44q-109 0 -181 70t-72 192q0 124 65.5 197t183.5 73zM280 411q-90 0 -98 -95h193q-2 42 -25 68.5t-70 26.5z" />
    <glyph glyph-name="igrave" unicode="&#xec;" horiz-adv-x="279" 
d="M90 571q-4 0 -7 3l-142 108q-4 3 -3 5.5t5 2.5h133q5 0 8 -4l101 -108q5 -7 -3 -7h-92zM65 0v512h149v-512h-149z" />
    <glyph glyph-name="iacute" unicode="&#xed;" horiz-adv-x="279" 
d="M100 571q-9 0 -3 8l100 107q3 4 9 4h132q4 0 5 -2.5t-3 -5.5l-144 -108q-4 -3 -8 -3h-88zM65 0v512h149v-512h-149z" />
    <glyph glyph-name="icircumflex" unicode="&#xee;" horiz-adv-x="279" 
d="M-10 561q-9 0 -3 8l106 114q1 4 8 4h77q5 0 8 -4l106 -114q6 -8 -3 -8h-96q-4 0 -8 4l-42 54q-3 7 -8 0l-41 -54q-4 -4 -8 -4h-96zM65 0v512h149v-512h-149z" />
    <glyph glyph-name="idieresis" unicode="&#xef;" horiz-adv-x="279" 
d="M-5 575q-6 0 -6 6v102q0 7 6 7h98q6 0 6 -7v-102q0 -6 -6 -6h-98zM186 575q-7 0 -7 6v102q0 7 7 7h97q7 0 7 -7v-102q0 -6 -7 -6h-97zM65 0v512h149v-512h-149z" />
    <glyph glyph-name="eth" unicode="&#xf0;" horiz-adv-x="570" 
d="M323 676q217 -136 217 -424q0 -107 -69 -183.5t-186 -76.5q-119 0 -187.5 76t-68.5 184q0 107 66 183.5t176 76.5q40 0 73.5 -14.5t50.5 -36.5q-43 86 -135 144l-50 -55q-5 -5 -10 -1l-36 34q-5 4 -1 10l41 44l-64 30q-6 1 -3 8l51 60q4 6 8 3q50 -20 72 -31l50 54
q4 5 10 1l34 -32q6 -4 1 -9zM285 114q49 0 74.5 36.5t25.5 101.5t-26 101.5t-74 36.5q-49 0 -75.5 -36.5t-26.5 -101.5t26.5 -101.5t75.5 -36.5z" />
    <glyph glyph-name="ntilde" unicode="&#xf1;" horiz-adv-x="602" 
d="M119 560q-6 0 -6 7q3 126 107 126q34 0 59.5 -14.5t45 -28.5t38.5 -14q35 0 38 50q0 6 6 6h71q7 0 7 -6q-3 -128 -107 -128q-33 0 -59 15t-45.5 30t-37.5 15q-33 0 -36 -51q0 -7 -7 -7h-74zM64 0q-7 0 -7 7v498q0 7 7 7h134q7 0 7 -7v-54q60 71 162 71q80 0 128.5 -50.5
t48.5 -132.5v-332q0 -7 -6 -7h-136q-7 0 -7 7v291q0 102 -85 102q-47 0 -75 -29t-28 -82v-282q0 -7 -7 -7h-136z" />
    <glyph glyph-name="ograve" unicode="&#xf2;" horiz-adv-x="590" 
d="M246 571q-4 0 -7 3l-142 108q-4 3 -3 5.5t5 2.5h133q5 0 8 -4l101 -108q5 -7 -3 -7h-92zM295 -11q-116 0 -189 69.5t-73 195.5q0 128 73 198t189 70q117 0 189.5 -70t72.5 -198q0 -126 -73 -195.5t-189 -69.5zM296 114q112 0 112 140q0 143 -112 143q-51 0 -81.5 -34.5
t-30.5 -108.5q0 -72 30.5 -106t81.5 -34z" />
    <glyph glyph-name="oacute" unicode="&#xf3;" horiz-adv-x="590" 
d="M255 571q-9 0 -3 8l100 107q3 4 9 4h132q4 0 5 -2.5t-3 -5.5l-144 -108q-4 -3 -8 -3h-88zM295 -11q-116 0 -189 69.5t-73 195.5q0 128 73 198t189 70q117 0 189.5 -70t72.5 -198q0 -126 -73 -195.5t-189 -69.5zM296 114q112 0 112 140q0 143 -112 143q-51 0 -81.5 -34.5
t-30.5 -108.5q0 -72 30.5 -106t81.5 -34z" />
    <glyph glyph-name="ocircumflex" unicode="&#xf4;" horiz-adv-x="590" 
d="M146 561q-9 0 -3 8l106 114q1 4 8 4h77q5 0 8 -4l106 -114q6 -8 -3 -8h-96q-4 0 -8 4l-42 54q-3 7 -8 0l-41 -54q-4 -4 -8 -4h-96zM295 -11q-116 0 -189 69.5t-73 195.5q0 128 73 198t189 70q117 0 189.5 -70t72.5 -198q0 -126 -73 -195.5t-189 -69.5zM296 114
q112 0 112 140q0 143 -112 143q-51 0 -81.5 -34.5t-30.5 -108.5q0 -72 30.5 -106t81.5 -34z" />
    <glyph glyph-name="otilde" unicode="&#xf5;" horiz-adv-x="590" 
d="M116 558q-6 0 -6 7q3 126 107 126q34 0 59.5 -14.5t45 -28.5t38.5 -14q35 0 38 50q0 6 6 6h71q7 0 7 -6q-3 -128 -107 -128q-33 0 -59 15t-45.5 30t-37.5 15q-33 0 -36 -51q0 -7 -7 -7h-74zM295 -11q-116 0 -189 69.5t-73 195.5q0 128 73 198t189 70q117 0 189.5 -70
t72.5 -198q0 -126 -73 -195.5t-189 -69.5zM296 114q112 0 112 140q0 143 -112 143q-51 0 -81.5 -34.5t-30.5 -108.5q0 -72 30.5 -106t81.5 -34z" />
    <glyph glyph-name="odieresis" unicode="&#xf6;" horiz-adv-x="590" 
d="M151 575q-6 0 -6 6v102q0 7 6 7h98q6 0 6 -7v-102q0 -6 -6 -6h-98zM342 575q-7 0 -7 6v102q0 7 7 7h97q7 0 7 -7v-102q0 -6 -7 -6h-97zM295 -11q-116 0 -189 69.5t-73 195.5q0 128 73 198t189 70q117 0 189.5 -70t72.5 -198q0 -126 -73 -195.5t-189 -69.5zM296 114
q112 0 112 140q0 143 -112 143q-51 0 -81.5 -34.5t-30.5 -108.5q0 -72 30.5 -106t81.5 -34z" />
    <glyph glyph-name="divide" unicode="&#xf7;" horiz-adv-x="827" 
d="M344 480q-7 0 -7 6v138q0 7 7 7h139q7 0 7 -7v-138q0 -6 -7 -6h-139zM66 262q-6 0 -6 6v99q0 7 6 7h694q7 0 7 -7v-99q0 -6 -7 -6h-694zM344 -2q-7 0 -7 7v137q0 7 7 7h139q7 0 7 -7v-137q0 -7 -7 -7h-139z" />
    <glyph glyph-name="oslash" unicode="&#xf8;" horiz-adv-x="590" 
d="M506 428q51 -70 51 -174q0 -126 -73 -195.5t-189 -69.5q-103 0 -173 55l-44 -44q-4 -4 -7 0l-30 30q-4 4 0 8l44 44q-52 68 -52 172q0 128 73 198t189 70q104 0 174 -56l43 43q4 5 8 1l30 -30q4 -2 0 -8zM184 254q0 -38 9 -64l179 179q-27 28 -76 28q-51 0 -81.5 -34.5
t-30.5 -108.5zM296 114q112 0 112 140q0 40 -9 67l-179 -179q29 -28 76 -28z" />
    <glyph glyph-name="ugrave" unicode="&#xf9;" horiz-adv-x="602" 
d="M252 571q-4 0 -7 3l-142 108q-4 3 -3 5.5t5 2.5h133q5 0 8 -4l101 -108q5 -7 -3 -7h-92zM242 -13q-84 0 -134 53t-50 134v331q0 7 7 7h136q7 0 7 -7v-293q0 -97 90 -97q47 0 72.5 28.5t25.5 76.5v285q0 7 6 7h137q6 0 6 -7v-498q0 -7 -6 -7h-134q-7 0 -7 7v55
q-53 -75 -156 -75z" />
    <glyph glyph-name="uacute" unicode="&#xfa;" horiz-adv-x="602" 
d="M261 571q-9 0 -3 8l100 107q3 4 9 4h132q4 0 5 -2.5t-3 -5.5l-144 -108q-4 -3 -8 -3h-88zM242 -13q-84 0 -134 53t-50 134v331q0 7 7 7h136q7 0 7 -7v-293q0 -97 90 -97q47 0 72.5 28.5t25.5 76.5v285q0 7 6 7h137q6 0 6 -7v-498q0 -7 -6 -7h-134q-7 0 -7 7v55
q-53 -75 -156 -75z" />
    <glyph glyph-name="ucircumflex" unicode="&#xfb;" horiz-adv-x="602" 
d="M151 561q-9 0 -3 8l106 114q1 4 8 4h77q5 0 8 -4l106 -114q6 -8 -3 -8h-96q-4 0 -8 4l-42 54q-3 7 -8 0l-41 -54q-4 -4 -8 -4h-96zM242 -13q-84 0 -134 53t-50 134v331q0 7 7 7h136q7 0 7 -7v-293q0 -97 90 -97q47 0 72.5 28.5t25.5 76.5v285q0 7 6 7h137q6 0 6 -7v-498
q0 -7 -6 -7h-134q-7 0 -7 7v55q-53 -75 -156 -75z" />
    <glyph glyph-name="udieresis" unicode="&#xfc;" horiz-adv-x="602" 
d="M156 575q-6 0 -6 6v102q0 7 6 7h98q6 0 6 -7v-102q0 -6 -6 -6h-98zM347 575q-7 0 -7 6v102q0 7 7 7h97q7 0 7 -7v-102q0 -6 -7 -6h-97zM242 -13q-84 0 -134 53t-50 134v331q0 7 7 7h136q7 0 7 -7v-293q0 -97 90 -97q47 0 72.5 28.5t25.5 76.5v285q0 7 6 7h137q6 0 6 -7
v-498q0 -7 -6 -7h-134q-7 0 -7 7v55q-53 -75 -156 -75z" />
    <glyph glyph-name="yacute" unicode="&#xfd;" horiz-adv-x="528" 
d="M226 571q-9 0 -3 8l100 107q3 4 9 4h132q4 0 5 -2.5t-3 -5.5l-144 -108q-4 -3 -8 -3h-88zM48 -178q-7 0 -7 7v104q0 7 7 7q64 0 95.5 14.5t49.5 45.5l-196 504q-2 8 5 8h147q5 0 8 -5l106 -342l111 342q2 5 7 5h148q7 0 5 -8l-201 -513q-40 -101 -98.5 -134.5
t-186.5 -34.5z" />
    <glyph glyph-name="thorn" unicode="&#xfe;" horiz-adv-x="601" 
d="M64 -178q-7 0 -7 7v854q0 7 7 7h139q6 0 6 -7v-253h3q57 68 147 68q96 0 152.5 -71t56.5 -183t-56.5 -183t-152.5 -71q-98 0 -147 65h-5v-226q0 -7 -7 -7h-136zM316 113q54 0 83.5 36t29.5 101q0 67 -29.5 103.5t-83.5 36.5q-52 0 -82 -38.5t-30 -101.5q0 -62 30 -99.5
t82 -37.5z" />
    <glyph glyph-name="ydieresis" unicode="&#xff;" horiz-adv-x="528" 
d="M121 575q-6 0 -6 6v102q0 7 6 7h98q6 0 6 -7v-102q0 -6 -6 -6h-98zM312 575q-7 0 -7 6v102q0 7 7 7h97q7 0 7 -7v-102q0 -6 -7 -6h-97zM48 -178q-7 0 -7 7v104q0 7 7 7q64 0 95.5 14.5t49.5 45.5l-196 504q-2 8 5 8h147q5 0 8 -5l106 -342l111 342q2 5 7 5h148q7 0 5 -8
l-201 -513q-40 -101 -98.5 -134.5t-186.5 -34.5z" />
    <glyph glyph-name="dcaron" unicode="&#x10f;" horiz-adv-x="750" 
d="M255 -11q-102 0 -161.5 73t-59.5 194q0 120 58.5 193t160.5 73q49 0 91.5 -20.5t67.5 -57.5v239q0 7 7 7h136q7 0 7 -7v-676q0 -7 -7 -7h-133q-7 0 -7 7v66q-22 -40 -65 -62t-95 -22zM624 410q-8 0 -5 6l43 129h-53q-5 0 -5 6v133q0 6 5 6h150q6 0 6 -6v-136
q0 -1 -0.5 -3t-0.5 -4l-75 -125q-3 -6 -8 -6h-57zM302 114q52 0 82.5 38t30.5 105q0 64 -31 102t-82 38q-57 0 -87.5 -35.5t-30.5 -104.5q0 -143 118 -143z" />
    <glyph glyph-name="Dcroat" unicode="&#x110;" horiz-adv-x="677" 
d="M72 0q-7 0 -7 7v292h-55q-7 0 -7 6v86q0 6 7 6h55v286q0 7 7 7h199q180 0 277.5 -90.5t97.5 -259.5q0 -162 -98.5 -251t-277.5 -89h-198zM201 128h57q251 0 251 217q0 112 -57 165t-183 53h-68v-166h169q7 0 7 -6v-86q0 -6 -7 -6h-169v-171z" />
    <glyph glyph-name="dotlessi" unicode="&#x131;" horiz-adv-x="279" 
d="M65 0v512h149v-512h-149z" />
    <glyph glyph-name="kgreenlandic" unicode="&#x138;" horiz-adv-x="583" 
d="M591 8q5 -8 -4 -8h-165q-5 0 -8 4l-135 211l-68 -67v-141q0 -7 -6 -7h-137q-7 0 -7 7v498q0 7 7 7h137q6 0 6 -7v-183l180 186q3 4 8 4h171q4 0 5 -2.5t-2 -5.5l-194 -191z" />
    <glyph glyph-name="Lcaron" unicode="&#x13d;" horiz-adv-x="528" 
d="M79 0q-7 0 -7 7v676q0 7 7 7h141q7 0 7 -7v-552h288q7 0 7 -7v-117q0 -7 -7 -7h-436zM383 408q-8 0 -5 7l43 128h-53q-6 0 -6 6v133q0 6 6 6h150q6 0 6 -6v-135q0 -3 -2 -7l-74 -126q-3 -6 -8 -6h-57z" />
    <glyph glyph-name="lcaron" unicode="&#x13e;" horiz-adv-x="403" 
d="M71 0q-6 0 -6 7v676q0 7 6 7h137q7 0 7 -7v-676q0 -7 -7 -7h-137zM277 410q-8 0 -5 6l43 129h-53q-6 0 -6 6v133q0 6 6 6h150q6 0 6 -6v-136q0 -1 -2 -7l-74 -125q-3 -6 -8 -6h-57z" />
    <glyph glyph-name="Lslash" unicode="&#x141;" horiz-adv-x="528" 
d="M515 131q7 0 7 -7v-117q0 -7 -7 -7h-436q-7 0 -7 7v203l-54 -41q-6 -6 -6 2v100q0 5 3 6l57 45v361q0 7 7 7h141q7 0 7 -7v-237l99 79q6 6 6 -3v-108q0 -4 -3 -6l-102 -78v-199h288z" />
    <glyph glyph-name="lslash" unicode="&#x142;" horiz-adv-x="280" 
d="M285 525q5 3 5 -3v-98q0 -3 -2 -5l-73 -57v-355q0 -7 -7 -7h-137q-6 0 -6 7v237l-54 -42q-5 -3 -5 3v90q0 4 2 6l57 46v336q0 7 6 7h137q7 0 7 -7v-215z" />
    <glyph glyph-name="Eng" unicode="&#x14a;" horiz-adv-x="759" 
d="M680 690q6 0 6 -7v-676v-1q-2 -73 -30 -110t-97 -37h-99q-6 0 -6 7v71q0 6 6 6h23q53 0 53 57h-8q-6 0 -8 4l-288 456h-5v-453q0 -7 -7 -7h-141q-7 0 -7 7v676q0 7 7 7h150q4 0 8 -4l290 -459h5v456q0 7 6 7h142z" />
    <glyph glyph-name="eng" unicode="&#x14b;" horiz-adv-x="603" 
d="M304 -141q-6 0 -6 7v83q0 6 6 6h47q26 0 37 18t11 41v277q0 44 -24 73t-67 29q-45 0 -75 -31.5t-30 -77.5v-277q0 -7 -7 -7h-132q-7 0 -7 7v498q0 7 7 7h125q6 0 6 -7v-71h8q47 86 156 86q94 0 140 -60.5t46 -143.5v-298q0 -23 -1.5 -38t-11 -40.5t-26.5 -41t-52.5 -27.5
t-85.5 -12h-64z" />
    <glyph glyph-name="OE" unicode="&#x152;" horiz-adv-x="1069" 
d="M1018 559h-276v-148h251q6 0 6 -7v-117q0 -7 -6 -7h-251v-149h276q6 0 6 -6v-118q0 -7 -6 -7h-409q-6 0 -6 7v77q-89 -94 -245 -94q-155 0 -242.5 95.5t-87.5 259.5t87.5 259.5t242.5 95.5q156 0 245 -94v77q0 7 6 7h409q6 0 6 -7v-117q0 -7 -6 -7zM358 123
q80 0 125.5 56.5t45.5 165.5q0 113 -45 167.5t-126 54.5q-165 0 -165 -222q0 -109 43.5 -165.5t121.5 -56.5z" />
    <glyph glyph-name="oe" unicode="&#x153;" horiz-adv-x="938" 
d="M667 522q108 0 172 -69.5t64 -183.5q0 -23 -1 -40q-1 -7 -8 -7h-328q4 -57 32.5 -86.5t76.5 -29.5q73 0 88 61q1 6 8 6h115q8 0 7 -9q-15 -86 -76 -130t-146 -44q-113 0 -183 72q-71 -73 -193 -73q-116 0 -189 69.5t-73 195.5q0 128 73 198t189 70q119 0 190 -71
q68 71 182 71zM665 411q-90 0 -98 -95h193q-2 42 -25 68.5t-70 26.5zM296 114q112 0 112 140q0 143 -112 143q-51 0 -81.5 -34.5t-30.5 -108.5q0 -72 30.5 -106t81.5 -34z" />
    <glyph glyph-name="Scaron" unicode="&#x160;" horiz-adv-x="593" 
d="M252 742q-5 0 -9 4l-106 113q-6 8 3 8h96q6 0 7 -4l41 -51q5 -5 10 0l41 51q1 4 7 4h97q9 0 3 -8l-107 -113q-4 -4 -9 -4h-74zM311 -10q-53 0 -100.5 12.5t-89.5 38.5t-68 74t-27 113q0 6 7 6h139q6 0 6 -6q3 -57 40 -83.5t93 -26.5q44 0 70 20.5t26 55.5q0 17 -7.5 30
t-17.5 22t-30 18t-36 14.5t-44 14.5q-9 3 -13 4q-27 8 -43 13.5t-41 16t-40.5 20.5t-34 26.5t-29 34t-17.5 42.5t-7 54q0 93 66.5 144.5t174.5 51.5q112 0 183 -49t74 -150q0 -6 -7 -6h-142q-7 0 -7 6q-2 42 -30.5 61.5t-70.5 19.5q-85 0 -85 -62q0 -32 28 -49t95 -40
q104 -33 140 -54q100 -58 100 -169q0 -102 -67.5 -160t-187.5 -58z" />
    <glyph glyph-name="scaron" unicode="&#x161;" horiz-adv-x="496" 
d="M206 565q-5 0 -9 4l-106 113q-6 8 3 8h96q6 0 7 -4l41 -51q5 -5 10 0l41 51q1 4 7 4h97q9 0 3 -8l-107 -113q-4 -4 -9 -4h-74zM260 -10q-112 0 -167 44q-58 42 -62 132q0 7 7 7h117q6 0 6 -7q3 -36 25 -54q25 -22 73 -19q28 0 47 13.5t19 38.5q0 26 -22.5 38t-77.5 25
q-4 1 -6 1q-34 8 -51.5 13t-45 17t-42 26.5t-25.5 39t-11 55.5q0 80 57 121t144 41q79 0 134 -32q76 -43 79 -134q0 -6 -7 -6h-111q-6 0 -6 6q-3 34 -23 49q-21 15 -59 15q-30 0 -50 -12.5t-20 -34.5q0 -8 2.5 -14t9.5 -10.5t13.5 -8t19.5 -7.5t22.5 -6.5t28 -7.5t31.5 -8
q37 -10 61 -19.5t49 -26.5t37 -44t12 -64q0 -82 -56.5 -124.5t-151.5 -42.5z" />
    <glyph glyph-name="tcaron" unicode="&#x165;" horiz-adv-x="428" 
d="M310 559q-6 0 -5 7l44 128h-53q-6 0 -6 6v133q0 6 6 6h150q6 0 6 -6v-135q0 -2 -2 -8l-74 -125q-3 -6 -8 -6h-58zM200 0q-57 0 -88.5 34.5t-31.5 95.5v280h-64q-7 0 -7 6v89q0 7 7 7h64v131q0 7 6 7h136q7 0 7 -7v-131h98q6 0 6 -7v-89q0 -6 -6 -6h-98v-243
q0 -28 10 -39.5t33 -11.5h55q6 0 6 -6v-103q0 -7 -6 -7h-127z" />
    <glyph glyph-name="Ydieresis" unicode="&#x178;" horiz-adv-x="687" 
d="M199 752q-6 0 -6 6v102q0 7 6 7h98q6 0 6 -7v-102q0 -6 -6 -6h-98zM390 752q-7 0 -7 6v102q0 7 7 7h97q7 0 7 -7v-102q0 -6 -7 -6h-97zM273 0q-6 0 -6 7v262l-264 413q-3 8 5 8h159q7 0 8 -4l172 -276l165 276q3 4 8 4h160q7 0 4 -8l-264 -413v-262q0 -7 -7 -7h-140z" />
    <glyph glyph-name="Zcaron" unicode="&#x17d;" horiz-adv-x="604" 
d="M251 746l-106 113q-6 8 3 8h96q6 0 7 -4l41 -51q5 -5 10 0l41 51q1 4 7 4h97q9 0 3 -8l-107 -113q-4 -4 -9 -4h-74q-5 0 -9 4zM587 586q0 -5 -3 -8l-365 -447h361q7 0 7 -7v-117q0 -7 -7 -7h-556q-7 0 -7 7v89q0 4 3 9l376 454h-350q-7 0 -7 7v117q0 7 7 7h534q7 0 7 -7
v-97z" />
    <glyph glyph-name="zcaron" unicode="&#x17e;" horiz-adv-x="495" 
d="M199 569l-106 113q-6 8 3 8h96q6 0 7 -4l41 -51q5 -5 10 0l41 51q1 4 7 4h97q9 0 3 -8l-107 -113q-4 -4 -9 -4h-74q-5 0 -9 4zM468 406q0 -5 -3 -8l-250 -280h245q6 0 6 -7v-104q0 -7 -6 -7h-427q-6 0 -6 7v93q0 5 3 8l262 287h-256q-7 0 -7 7v103q0 7 7 7h425q7 0 7 -7
v-99z" />
    <glyph glyph-name="florin" unicode="&#x192;" horiz-adv-x="530" 
d="M24 -223q-7 0 -7 7v108q0 6 7 6q96 1 127 25.5t31 102.5v321h-80q-7 0 -7 6v101q0 6 7 6h80v78q0 73 45.5 121t123.5 48q76 0 121.5 -39.5t47.5 -121.5q0 -7 -7 -7h-104q-6 0 -6 7q-2 24 -16.5 36t-33.5 12q-49 0 -49 -62v-72h142q7 0 7 -6v-101q0 -6 -7 -6h-142v-321
q0 -118 -69.5 -182.5t-210.5 -66.5z" />
    <glyph glyph-name="Oslashacute" unicode="&#x1fe;" horiz-adv-x="721" 
d="M321 749q-9 0 -3 8l100 107q3 4 9 4h132q4 0 5 -2.5t-3 -5.5l-144 -108q-4 -3 -8 -3h-88zM632 571q61 -90 61 -226q0 -164 -88.5 -259.5t-246.5 -95.5q-141 0 -227 80l-43 -42q-4 -5 -9 0l-38 37q-4 4 0 10l46 46q-59 92 -59 224q0 164 87.5 259.5t242.5 95.5
q142 0 230 -79l40 40q6 5 10 1l38 -37q4 -4 0 -10zM193 345q0 -58 14 -105l275 275q-43 52 -124 52q-165 0 -165 -222zM358 123q80 0 125.5 56.5t45.5 165.5q0 64 -15 109l-276 -276q43 -55 120 -55z" />
    <glyph glyph-name="oslashacute" unicode="&#x1ff;" horiz-adv-x="590" 
d="M255 571q-9 0 -3 8l100 107q3 4 9 4h132q4 0 5 -2.5t-3 -5.5l-144 -108q-4 -3 -8 -3h-88zM506 428q51 -70 51 -174q0 -126 -73 -195.5t-189 -69.5q-103 0 -173 55l-44 -44q-4 -4 -7 0l-30 30q-4 4 0 8l44 44q-52 68 -52 172q0 128 73 198t189 70q104 0 174 -56l43 43
q4 5 8 1l30 -30q4 -2 0 -8zM184 254q0 -38 9 -64l179 179q-27 28 -76 28q-51 0 -81.5 -34.5t-30.5 -108.5zM296 114q112 0 112 140q0 40 -9 67l-179 -179q29 -28 76 -28z" />
    <glyph glyph-name="uni0237" unicode="&#x237;" horiz-adv-x="272" 
d="M-20 -178q-6 0 -6 7v103q0 7 6 7q42 2 63.5 25t21.5 57v484q0 7 6 7h137q6 0 6 -7v-480q0 -102 -57 -152t-177 -51z" />
    <glyph glyph-name="circumflex" unicode="&#x2c6;" horiz-adv-x="315" 
d="M8 531q-9 0 -3 8l108 116q4 4 8 4h73q6 0 8 -4l108 -116q6 -8 -3 -8h-96q-4 0 -8 4l-46 60l-45 -60q-4 -4 -8 -4h-96z" />
    <glyph glyph-name="caron" unicode="&#x2c7;" horiz-adv-x="315" 
d="M119 542q-5 0 -8 3l-106 113q-6 8 3 8h96q6 0 7 -4l46 -56l46 56q1 4 7 4h97q9 0 3 -8l-107 -113q-3 -3 -8 -3h-76z" />
    <glyph glyph-name="breve" unicode="&#x2d8;" horiz-adv-x="290" 
d="M145 533q-73 0 -113 32.5t-42 93.5q0 6 7 6h78q7 0 7 -6q4 -49 63 -49q60 0 64 49q0 6 6 6h82q7 0 7 -7q-6 -125 -159 -125z" />
    <glyph glyph-name="dotaccent" unicode="&#x2d9;" horiz-adv-x="137" 
d="M20 552q-7 0 -7 6v101q0 7 7 7h96q6 0 6 -7v-101q0 -6 -6 -6h-96z" />
    <glyph glyph-name="ring" unicode="&#x2da;" horiz-adv-x="188" 
d="M94 535q-47 0 -78.5 32.5t-31.5 78.5t31.5 78.5t78.5 32.5q46 0 78.5 -32.5t32.5 -78.5t-32.5 -78.5t-78.5 -32.5zM94 596q22 0 36 14.5t14 37.5q0 21 -13.5 34.5t-36.5 13.5q-22 0 -36 -13.5t-14 -34.5q0 -22 14.5 -37t35.5 -15z" />
    <glyph glyph-name="ogonek" unicode="&#x2db;" horiz-adv-x="214" 
d="M125 -232q-46 0 -81 26t-35 80q0 77 91 134l88 -8q-11 -10 -29.5 -26t-27 -24.5t-19 -20t-15 -21.5t-4.5 -21q0 -19 11.5 -27t26.5 -4q18 3 31 19q5 5 10 2l61 -43q5 -5 2 -8q-39 -58 -110 -58z" />
    <glyph glyph-name="tilde" unicode="&#x2dc;" horiz-adv-x="341" 
d="M-8 527q-6 0 -6 7q3 126 107 126q34 0 59.5 -14t45 -28.5t38.5 -14.5q35 0 38 50q0 6 6 6h71q7 0 7 -6q-3 -128 -107 -128q-33 0 -59 15t-45.5 30t-37.5 15q-33 0 -36 -51q0 -7 -7 -7h-74z" />
    <glyph glyph-name="hungarumlaut" unicode="&#x2dd;" horiz-adv-x="358" 
d="M-17 552q-10 0 -4 8l91 102q1 4 7 4h104q9 0 3 -8l-103 -102q-3 -4 -8 -4h-90zM170 552q-9 0 -4 8l91 102q3 4 8 4h121q4 0 5 -2.5t-2 -5.5l-122 -103q-5 -3 -8 -3h-89z" />
    <glyph glyph-name="gravecomb" unicode="&#x300;" 
d="M-69 547q-4 0 -7 3l-142 108q-4 3 -3 5.5t5 2.5h133q5 0 8 -4l101 -108q5 -7 -3 -7h-92z" />
    <glyph glyph-name="acutecomb" unicode="&#x301;" 
d="M-214 547q-9 0 -3 8l100 107q3 4 9 4h132q4 0 5 -2.5t-3 -5.5l-144 -108q-4 -3 -8 -3h-88z" />
    <glyph glyph-name="uni0302" unicode="&#x302;" 
d="M-307 531q-9 0 -3 8l106 114q1 4 8 4h77q5 0 8 -4l106 -114q6 -8 -3 -8h-96q-4 0 -8 4l-42 54q-3 7 -8 0l-41 -54q-4 -4 -8 -4h-96z" />
    <glyph glyph-name="tildecomb" unicode="&#x303;" 
d="M-349 527q-6 0 -6 7q3 126 107 126q34 0 59.5 -14t45 -28.5t38.5 -14.5q35 0 38 50q0 6 6 6h71q7 0 7 -6q-3 -128 -107 -128q-33 0 -59 15t-45.5 30t-37.5 15q-33 0 -36 -51q0 -7 -7 -7h-74z" />
    <glyph glyph-name="uni0304" unicode="&#x304;" 
d="M-290 575q-6 0 -6 7v63q0 6 6 6h269q7 0 7 -6v-63q0 -7 -7 -7h-269z" />
    <glyph glyph-name="uni0306" unicode="&#x306;" 
d="M-145 533q-73 0 -113 32.5t-42 93.5q0 6 7 6h78q7 0 7 -6q4 -49 63 -49q60 0 64 49q0 6 6 6h82q7 0 7 -7q-6 -125 -159 -125z" />
    <glyph glyph-name="uni0307" unicode="&#x307;" 
d="M-117 552q-7 0 -7 6v101q0 7 7 7h96q6 0 6 -7v-101q0 -6 -6 -6h-96z" />
    <glyph glyph-name="uni0308" unicode="&#x308;" 
d="M-309 551q-6 0 -6 6v102q0 7 6 7h98q6 0 6 -7v-102q0 -6 -6 -6h-98zM-118 551q-7 0 -7 6v102q0 7 7 7h97q7 0 7 -7v-102q0 -6 -7 -6h-97z" />
    <glyph glyph-name="uni030A" unicode="&#x30a;" 
d="M-94 535q-47 0 -78.5 32.5t-31.5 78.5t31.5 78.5t78.5 32.5q46 0 78.5 -32.5t32.5 -78.5t-32.5 -78.5t-78.5 -32.5zM-94 596q22 0 36 14.5t14 37.5q0 21 -13.5 34.5t-36.5 13.5q-22 0 -36 -13.5t-14 -34.5q0 -22 14.5 -37t35.5 -15z" />
    <glyph glyph-name="uni030B" unicode="&#x30b;" 
d="M-375 552q-10 0 -4 8l91 102q1 4 7 4h104q9 0 3 -8l-103 -102q-3 -4 -8 -4h-90zM-188 552q-9 0 -4 8l91 102q3 4 8 4h121q4 0 5 -2.5t-2 -5.5l-122 -103q-4 -3 -8 -3h-89z" />
    <glyph glyph-name="uni030C" unicode="&#x30c;" 
d="M-195 541q-5 0 -9 4l-106 113q-6 8 3 8h96q6 0 7 -4l41 -51q5 -5 10 0l41 51q1 4 7 4h97q9 0 3 -8l-107 -113q-4 -4 -9 -4h-74z" />
    <glyph glyph-name="uni0312" unicode="&#x312;" 
d="M184 690q8 0 5 -7l-63 -120q-2 -5 -7 -5h-127q-4 0 -5.5 2.5t1.5 4.5l120 121q3 4 8 4h68z" />
    <glyph glyph-name="uni0326" unicode="&#x326;" 
d="M-222 -212q-9 0 -5 7l62 135q2 5 8 5h127q4 0 5 -2.5t-2 -5.5l-119 -136q-4 -3 -9 -3h-67z" />
    <glyph glyph-name="uni0327" unicode="&#x327;" 
d="M-79 -244q-39 0 -69 18t-44 47q-3 5 3 9l57 26q6 3 9 -4q9 -24 37 -24q31 0 34 30q5 29 -30 39l-71 20q-7 3 -4 9l43 74h100l-40 -56q83 -21 83 -89q0 -47 -32 -73t-76 -26z" />
    <glyph glyph-name="uni0328" unicode="&#x328;" 
d="M-89 -232q-46 0 -81 26t-35 80q0 77 91 134l88 -8q-11 -10 -29.5 -26t-27 -24.5t-19 -20t-15 -21.5t-4.5 -21q0 -19 11.5 -27t26.5 -4q18 3 31 19q5 5 10 2l61 -43q5 -5 2 -8q-39 -58 -110 -58z" />
    <glyph glyph-name="uni0335" unicode="&#x335;" 
d="M-392 251q-10 0 -10 10v34q0 10 10 10h304q10 0 10 -10v-34q0 -10 -10 -10h-304z" />
    <glyph glyph-name="uni0336" unicode="&#x336;" 
d="M-752 244q-6 0 -6 7v54q0 7 6 7h668q6 0 6 -7v-54q0 -7 -6 -7h-668z" />
    <glyph glyph-name="uni0337" unicode="&#x337;" 
d="M-464 75q-8 -6 -8 4v138q0 5 4 8l428 342q8 6 8 -4v-150q0 -5 -4 -8z" />
    <glyph glyph-name="uni0338" unicode="&#x338;" 
d="M-601 22q-4 -5 -9 0l-38 37q-4 4 0 10l587 586q5 5 10 1l38 -37q4 -4 0 -10z" />
    <glyph glyph-name="endash" unicode="&#x2013;" horiz-adv-x="429" 
d="M23 192q-6 0 -6 6v110q0 7 6 7h383q7 0 7 -7v-110q0 -6 -7 -6h-383z" />
    <glyph glyph-name="emdash" unicode="&#x2014;" horiz-adv-x="1000" 
d="M7 192q-7 0 -7 6v110q0 7 7 7h986q7 0 7 -7v-110q0 -6 -7 -6h-986z" />
    <glyph glyph-name="quoteleft" unicode="&#x2018;" horiz-adv-x="234" 
d="M175 690q9 0 6 -8l-48 -142h59q6 0 6 -6v-147q0 -7 -6 -7h-166q-7 0 -7 7v150q0 3 2 7l82 139q3 7 9 7h63z" />
    <glyph glyph-name="quoteright" unicode="&#x2019;" horiz-adv-x="258" 
d="M65 380q-9 0 -6 8l48 142h-58q-7 0 -7 6v147q0 7 7 7h166q6 0 6 -7v-149q0 -4 -2 -8l-82 -139q-3 -7 -9 -7h-63z" />
    <glyph glyph-name="quotesinglbase" unicode="&#x201a;" horiz-adv-x="276" 
d="M66 -150q-9 0 -6 8l48 142h-58q-7 0 -7 7v147q0 6 7 6h166q6 0 6 -6v-150q0 -2 -2 -8l-82 -139q-4 -7 -9 -7h-63z" />
    <glyph glyph-name="quotedblleft" unicode="&#x201c;" horiz-adv-x="485" 
d="M175 690q9 0 6 -8l-48 -142h59q6 0 6 -6v-147q0 -7 -6 -7h-166q-7 0 -7 7v150q0 3 2 7l82 139q3 7 9 7h63zM426 690q9 0 6 -8l-48 -142h58q7 0 7 -6v-147q0 -7 -7 -7h-166q-6 0 -6 7v150q0 3 2 7l82 139q4 7 9 7h63z" />
    <glyph glyph-name="quotedblright" unicode="&#x201d;" horiz-adv-x="510" 
d="M65 380q-9 0 -6 8l48 142h-58q-7 0 -7 6v147q0 7 7 7h166q6 0 6 -7v-149q0 -4 -2 -8l-82 -139q-3 -7 -9 -7h-63zM317 380q-8 0 -5 8l47 142h-58q-6 0 -6 6v147q0 7 6 7h166q7 0 7 -7v-149q0 -4 -2 -8l-83 -139q-3 -7 -9 -7h-63z" />
    <glyph glyph-name="quotedblbase" unicode="&#x201e;" horiz-adv-x="528" 
d="M66 -150q-9 0 -6 8l48 142h-58q-7 0 -7 7v147q0 6 7 6h166q6 0 6 -6v-150q0 -2 -2 -8l-82 -139q-4 -7 -9 -7h-63zM318 -150q-8 0 -5 8l47 142h-58q-6 0 -6 7v147q0 6 6 6h166q7 0 7 -6v-150q0 -2 -2 -8l-83 -139q-4 -7 -9 -7h-63z" />
    <glyph glyph-name="dagger" unicode="&#x2020;" horiz-adv-x="449" 
d="M165 -100q-6 0 -6 7v475h-102q-6 0 -6 7v120q0 7 6 7h102v167q0 7 6 7h119q7 0 7 -7v-167h101q7 0 7 -7v-120q0 -7 -7 -7h-101v-475q0 -7 -7 -7h-119z" />
    <glyph glyph-name="daggerdbl" unicode="&#x2021;" horiz-adv-x="449" 
d="M165 -100q-6 0 -6 7v167h-102q-6 0 -6 7v120q0 7 6 7h102v174h-102q-6 0 -6 7v120q0 7 6 7h102v167q0 7 6 7h119q7 0 7 -7v-167h101q7 0 7 -7v-120q0 -7 -7 -7h-101v-174h101q7 0 7 -7v-120q0 -7 -7 -7h-101v-167q0 -7 -7 -7h-119z" />
    <glyph glyph-name="bullet" unicode="&#x2022;" horiz-adv-x="496" 
d="M249 42q-90 0 -153 63.5t-63 152.5t63 152t153 63q88 0 151 -63t63 -152t-63 -152.5t-151 -63.5z" />
    <glyph glyph-name="ellipsis" unicode="&#x2026;" horiz-adv-x="876" 
d="M53 0q-7 0 -7 7v147q0 6 7 6h166q7 0 7 -6v-147q0 -7 -7 -7h-166zM355 0q-7 0 -7 7v147q0 6 7 6h166q7 0 7 -6v-147q0 -7 -7 -7h-166zM656 0q-6 0 -6 7v147q0 6 6 6h167q6 0 6 -6v-147q0 -7 -6 -7h-167z" />
    <glyph glyph-name="perthousand" unicode="&#x2030;" horiz-adv-x="1079" 
d="M174 364q-42 0 -73 17.5t-47 45t-23 53.5t-7 51q0 27 7 54t22.5 54.5t46 44.5t71.5 17q72 0 109.5 -53t37.5 -118q0 -64 -36.5 -115t-107.5 -51zM131 0q-10 0 -5 8l363 677q2 5 8 5h115q10 0 5 -8l-364 -677q-2 -5 -7 -5h-115zM172 470q15 0 26.5 17t11.5 44
q0 29 -11.5 47t-27.5 18q-18 0 -29.5 -17.5t-11.5 -47.5q0 -28 12 -44.5t30 -16.5zM578 -7q-42 0 -73 17t-47 44.5t-23 54t-7 53.5t7 55t22.5 56t46 46t71.5 18q73 0 110 -54t37 -121q0 -65 -36.5 -117t-107.5 -52zM904 -7q-40 0 -70.5 17t-46.5 44t-24 54.5t-8 53.5
t7.5 54.5t23.5 56.5t46 46t69 18q49 0 85 -28.5t51.5 -67t15.5 -79.5q0 -64 -39 -116.5t-110 -52.5zM577 97q14 0 25.5 19t11.5 47q0 30 -11.5 48.5t-27.5 18.5q-17 0 -29 -18.5t-12 -49.5q0 -29 12 -47t31 -18zM902 97q16 0 27.5 19t11.5 47q0 31 -11 49t-29 18
q-16 0 -26 -18t-10 -50q0 -29 10 -47t27 -18z" />
    <glyph glyph-name="guilsinglleft" unicode="&#x2039;" horiz-adv-x="305" 
d="M267 102q0 -4 -2.5 -5.5t-5.5 1.5l-216 196q-4 5 0 10l216 196q3 3 5.5 2t2.5 -5v-109q0 -4 -4 -8l-82 -81l82 -80q4 -4 4 -8v-109z" />
    <glyph glyph-name="guilsinglright" unicode="&#x203a;" horiz-adv-x="305" 
d="M46 98q-3 -3 -5.5 -1.5t-2.5 5.5v109q0 4 4 8l82 80l-82 81q-4 4 -4 8v109q0 4 2.5 5t5.5 -2l216 -196q4 -5 0 -10z" />
    <glyph glyph-name="fraction" unicode="&#x2044;" horiz-adv-x="221" 
d="M-146 0q-14 0 -7 12l387 671q4 7 12 7h121q12 0 7 -12l-391 -671q-5 -7 -12 -7h-117z" />
    <glyph glyph-name="Euro" unicode="&#x20ac;" horiz-adv-x="669" 
d="M641 88q5 -4 0 -9q-91 -89 -226 -89q-120 0 -198 66t-106 176h-104q-10 0 -5 8l31 59q2 5 9 5h57q-2 30 -2 45v17h-88q-9 0 -6 8l34 64q3 4 9 4h60q23 117 101.5 188t205.5 71q111 0 185 -55q5 -3 3 -9l-43 -113q-2 -8 -8 -2q-32 32 -63 46.5t-77 14.5q-142 0 -179 -141
h287q8 0 5 -8l-25 -64q-2 -5 -8 -5l-270 1v-14q0 -24 3 -48h240q8 0 6 -8l-23 -59q-3 -5 -8 -5h-198q46 -118 166 -118q49 0 81.5 13t63.5 43q5 5 10 0z" />
    <glyph glyph-name="trademark" unicode="&#x2122;" horiz-adv-x="639" 
d="M230 690q7 0 7 -7v-60q0 -6 -7 -6h-65v-182q0 -7 -7 -7h-74q-6 0 -6 7v182h-66q-7 0 -7 6v60q0 7 7 7h218zM598 690q7 0 7 -7v-248q0 -7 -7 -7h-74q-7 0 -7 7v166l-43 -168q-2 -5 -8 -5h-54q-4 0 -7 5l-46 164v-162q0 -7 -7 -7h-74q-6 0 -6 7v248q0 7 6 7h111q5 0 8 -5
l43 -165l40 165q3 5 8 5h110z" />
    <glyph glyph-name="uni2126" unicode="&#x2126;" horiz-adv-x="747" 
d="M31 0q-6 0 -6 7v107q0 6 6 6h105q-53 39 -81 106t-28 135q0 137 103 231.5t243 94.5q142 0 244.5 -96.5t102.5 -236.5q0 -67 -26.5 -132t-76.5 -107h99q6 0 6 -7v-101q0 -7 -6 -7h-271q-6 0 -6 7v98q0 5 5 7q65 11 108 71.5t43 149.5q0 107 -62.5 170t-158.5 63
q-98 0 -160 -64.5t-62 -168.5q0 -91 45.5 -148t105.5 -73q5 -2 5 -7v-98q0 -7 -6 -7h-271z" />
    <glyph glyph-name="uni2206" unicode="&#x2206;" horiz-adv-x="617" 
d="M8 0q-9 0 -5 8l300 730q1 3 2.5 4t3 0t2.5 -4l303 -730q2 -8 -5 -8h-601zM178 121h261l-132 343z" />
    <glyph glyph-name="summation" unicode="&#x2211;" horiz-adv-x="612" 
d="M38 0q-6 0 -6 7v52q0 5 3 8l271 278l-271 277q-3 4 -3 9v52q0 7 6 7h536q7 0 7 -7v-108q0 -6 -7 -6h-330l230 -219q5 -5 0 -10l-230 -219h330q7 0 7 -6v-108q0 -7 -7 -7h-536z" />
    <glyph glyph-name="radical" unicode="&#x221a;" horiz-adv-x="592" 
d="M250 -128q-5 -10 -9 0l-141 381h-72q-6 0 -6 6v110q0 6 6 6h157q5 0 7 -5l61 -198l205 521q1 6 9 4l102 -34q7 -3 4 -9z" />
    <glyph glyph-name="infinity" unicode="&#x221e;" horiz-adv-x="828" 
d="M217 145q-96 0 -150.5 59.5t-54.5 154.5t54.5 154.5t150.5 59.5q51 0 104 -29t94 -82q40 53 94 82t104 29q95 0 149.5 -59.5t54.5 -154.5t-54.5 -154.5t-149.5 -59.5q-51 0 -104 29t-94 82q-42 -54 -95.5 -82.5t-102.5 -28.5zM232 279q26 0 59 19t59 61q-27 44 -59.5 62
t-58.5 18q-39 0 -66 -21t-27 -59q0 -39 26.5 -59.5t66.5 -20.5zM598 279q41 0 66.5 20t25.5 60q0 39 -25.5 59.5t-66.5 20.5q-27 0 -60 -19t-58 -61q27 -44 59 -62t59 -18z" />
    <glyph glyph-name="approxequal" unicode="&#x2248;" horiz-adv-x="753" 
d="M471 303q-41 0 -77.5 16.5t-58 36.5t-48.5 36.5t-52 16.5q-29 0 -40.5 -20t-9.5 -63q0 -7 -6 -7h-86q-7 0 -7 7q-2 81 37 128.5t111 47.5q50 0 90 -16.5t60 -36t44 -36t47 -16.5q32 0 46 22.5t13 72.5q0 7 6 7h90q7 0 7 -8q2 -88 -42 -138t-124 -50zM471 44
q-41 0 -77.5 16.5t-58 36.5t-48.5 36.5t-52 16.5q-29 0 -40.5 -19.5t-9.5 -63.5q0 -6 -6 -6h-86q-7 0 -7 6q-2 81 37 129t111 48q50 0 90 -16.5t60 -36.5t44 -36.5t47 -16.5q32 0 46 22.5t13 72.5q0 6 6 6h90q7 0 7 -7q2 -87 -42.5 -137.5t-123.5 -50.5z" />
    <glyph glyph-name="notequal" unicode="&#x2260;" horiz-adv-x="621" 
d="M67 0q-8 0 -5 8l94 167h-89q-6 0 -6 6v97q0 6 6 6h151l49 88h-200q-6 0 -6 6v97q0 6 6 6h263l114 205q3 4 8 4h103q7 0 4 -8l-109 -201h96q7 0 7 -6v-97q0 -6 -7 -6h-160l-48 -88h208q7 0 7 -6v-97q0 -6 -7 -6h-271l-94 -171q-1 -4 -8 -4h-106z" />
    <glyph glyph-name="lessequal" unicode="&#x2264;" horiz-adv-x="662" 
d="M573 53l-522 268q-6 5 0 9l522 267q3 2 5.5 0.5t2.5 -5.5v-119q0 -5 -5 -7l-274 -136q-8 -4 0 -9l274 -135q5 -2 5 -8v-120q0 -9 -8 -5zM574 -111h-518q-7 0 -7 6v98q0 7 7 7h518q7 0 7 -7v-98q0 -6 -7 -6z" />
    <glyph glyph-name="greaterequal" unicode="&#x2265;" horiz-adv-x="659" 
d="M86 53q-8 -4 -8 5v120q0 6 5 8l274 135q7 5 0 9l-274 136q-5 2 -5 7v119q0 4 2.5 5.5t5.5 -0.5l521 -267q7 -4 0 -9zM84 -111q-6 0 -6 6v98q0 7 6 7h519q7 0 7 -7v-98q0 -6 -7 -6h-519z" />
    <glyph glyph-name="lozenge" unicode="&#x25ca;" horiz-adv-x="574" 
d="M237 0q-5 0 -8 4l-190 342q-1 4 0 8l190 342q3 4 8 4h102q7 0 8 -4l188 -342q3 -4 0 -8l-188 -342q-1 -4 -8 -4h-102zM287 135l108 215l-108 215l-107 -215z" />
    <glyph glyph-name="f_t" horiz-adv-x="675" 
d="M644 410h-99v-243q0 -28 10.5 -39.5t33.5 -11.5h55q6 0 6 -6v-103q0 -7 -6 -7h-127q-57 0 -89 34.5t-32 95.5v280h-147v-403q0 -7 -7 -7h-136q-7 0 -7 7v403h-76q-7 0 -7 6v89q0 7 7 7h77v34q0 65 41 104.5t117 39.5h89q7 0 7 -7v-90q0 -6 -7 -6h-56q-42 0 -42 -46v-29
h147v131q0 7 7 7h136q6 0 6 -7v-131h99q6 0 6 -7v-89q0 -6 -6 -6z" />
    <glyph glyph-name="t_t" horiz-adv-x="655" 
d="M623 410h-98v-243q0 -28 10.5 -39.5t33.5 -11.5h54q7 0 7 -6v-103q0 -7 -7 -7h-127q-57 0 -88.5 34.5t-31.5 95.5v280h-147v-243q0 -28 10 -39.5t33 -11.5h55q6 0 6 -6v-103q0 -7 -6 -7h-127q-57 0 -88.5 34.5t-31.5 95.5v280h-64q-7 0 -7 6v89q0 7 7 7h64v131q0 7 6 7
h136q7 0 7 -7v-131h147v131q0 7 7 7h135q7 0 7 -7v-131h98q7 0 7 -7v-89q0 -6 -7 -6z" />
    <glyph glyph-name="HankenDesign" horiz-adv-x="899" 
d="M450 -30q-157 0 -267.5 110.5t-110.5 267.5t110.5 267.5t267.5 110.5t267.5 -110.5t110.5 -267.5t-110.5 -267.5t-267.5 -110.5zM450 5q142 0 242.5 100.5t100.5 242.5t-100.5 242.5t-242.5 100.5t-242.5 -100.5t-100.5 -242.5t100.5 -242.5t242.5 -100.5zM253 200
q-7 0 -12 5t-5 12v262q0 7 5 12.5t12 5.5t12.5 -5.5t5.5 -12.5v-262q0 -17 -18 -17zM450 200q-17 0 -17 17v262q0 18 17 18t17 -18v-262q0 -17 -17 -17zM646 200q-7 0 -11 5l-132 131q-4 5 -4 12q0 8 4 12l132 131q5 6 11 6q7 0 12.5 -5.5t5.5 -12.5t-5 -12l-119 -119
l119 -119q5 -5 5 -12t-5.5 -12t-12.5 -5zM319 331q-17 0 -17 17t17 17h65q18 0 18 -17t-18 -17h-65z" />
    </font>
</defs>
</svg>
